<?xml version="1.0" standalone="no"?>
<!DOCTYPE svg PUBLIC "-//W3C//DTD SVG 1.1//EN" "http://www.w3.org/Graphics/SVG/1.1/DTD/svg11.dtd" >
<svg xmlns="http://www.w3.org/2000/svg" xmlns:xlink="http://www.w3.org/1999/xlink" version="1.1">
<metadata>
Created by FontForge 20170731 at Thu Jan 16 18:42:12 2020
 By Aleksey,,,
Copyright 2015 The Sen Project Authors (https://github.com/philatype/Sen)
</metadata>
<defs>
<font id="Sen-Bold" horiz-adv-x="575" >
  <font-face 
    font-family="Sen"
    font-weight="700"
    font-stretch="normal"
    units-per-em="1024"
    panose-1="0 0 0 0 0 0 0 0 0 0"
    ascent="819"
    descent="-205"
    x-height="505"
    cap-height="670"
    bbox="-250 -255 1002 930"
    underline-thickness="50"
    underline-position="-175"
    unicode-range="U+000D-263A"
  />
<missing-glyph horiz-adv-x="512" 
d="M51 -240h410v960h-410v-960zM102 -189v858h308v-858h-308z" />
    <glyph glyph-name="smileface" unicode="&#x3a;D" horiz-adv-x="579" 
d="M544 335q24 -70 9.5 -139.5t-60.5 -123.5t-117 -78q-52 -18 -105 -14t-100 27t-82.5 62.5t-53.5 91.5q-18 53 -14 105.5t27 99.5t62.5 82.5t91.5 53.5q71 24 140 9.5t123.5 -60.5t78.5 -116zM370 14q64 22 106.5 72t56 114t-9.5 128q-22 65 -72 107t-113.5 55.5
t-127.5 -8.5q-8 -2 -15.5 -5.5t-14.5 -7.5v-1q2 -6 -3 -8t-7 4q-4 -2 -9 -5l-10 -6q-2 -2 -3 -2l-11 -8q5 0 6 -4q2 -5 -4 -7q-5 -2 -7 4v3q-7 -6 -14 -13l-14 -14q3 -5 -3 -7q-1 -1 -3 0q-4 -6 -6 -8q3 -3 3 -4q2 -5 -3 -7q-4 -1 -7 2l-2 -4t-3 -4q5 0 6 -5q2 -5 -4 -7
q-4 -1 -7 3l-6 -11q5 2 7 -4q2 -5 -3 -7t-7 4q-2 -4 -4 -10q4 0 5 -3q2 -6 -4 -8q-4 0 -5 2l-3 -11l3 -3q2 -5 -5 -7q-1 -1 -3 -1q-3 -12 -5 -24.5t-3 -26.5q4 -2 5 -4q2 -5 -4 -7l-1 -1q0 -7 0.5 -15.5t1.5 -17.5q2 -2 2 -3q2 -3 -1 -6l2 -8t2 -9q5 3 7 -3t-4 -7v-1
q1 -2 2 -5l2 -6l3 -8q5 2 7 -4q2 -5 -3 -7q2 -4 4 -7.5t3 -7.5q5 0 5 -4q2 -2 0 -4q7 -15 18 -28l0.5 0.5t1.5 0.5q5 2 7 -3t-2 -7q6 -7 12.5 -13t12.5 -13q4 0 6 -4v-1q3 -2 7 -6q2 3 4 3q5 2 7 -3q0 -5 -2 -6q4 -4 11 -7q-2 5 3 7q6 2 8 -4q2 -5 -4 -7q15 -9 30 -15
q0 1 -1 2q-2 5 4 7q5 2 7 -3q2 -6 -3 -9h-2q5 -2 13 -4q-2 7 4 9q5 2 7 -5q1 -4 -3 -7l11 -3q0 4 4 4q5 2 7 -3v-3q2 -1 4.5 -1t4.5 -1l1 1q5 2 7 -2q9 -1 18 -1.5t19 0.5q0 4 3 4q6 2 8 -3v-1q5 1 10.5 1.5t9.5 1.5q-2 0 -2 2q-2 6 4 8q5 2 7 -4q0 -3 -1 -5q15 3 34 9z
M271 463q-5 -2 -7 3t3 7t7 -3t-3 -7zM224 460q-5 -2 -7 4q-2 5 4 7q5 2 7 -3q2 -6 -4 -8zM290 453q-6 -2 -8 4q-2 5 4 7q5 2 7 -4q2 -5 -3 -7zM242 453q-5 -2 -7 4q-2 5 4 7q5 2 7 -4q2 -5 -4 -7zM196 451q-6 -2 -8 4q-2 5 4 7q5 2 7 -4q2 -5 -3 -7zM307 446q-5 -3 -7 3t4 8
t8 -4q2 -5 -5 -7zM262 444q-6 -2 -8 3t3 7q7 2 9 -3t-4 -7zM214 444q-4 -2 -8 3q-2 5 5 7q5 2 7 -3t-4 -7zM166 441q-5 0 -5 6t5 6q6 0 6 -6t-6 -6zM327 436q-5 -2 -7 4q-2 5 4 7q5 2 7 -3q1 -4 -4 -8zM273 440q-2 5 3 7t7 -3q2 -6 -3 -8t-7 4zM226 438q-2 5 4 7q5 2 7 -4
q2 -5 -4 -7q-5 -2 -7 4zM186 434q-5 -2 -7 4q-2 5 3 7t7 -4q2 -5 -3 -7zM345 429q-5 -2 -7 4q-2 5 3 7q6 2 8 -4q2 -5 -4 -7zM291 431q-2 5 4 7q5 2 7 -4q2 -5 -3 -8q-6 -2 -8 5zM244 430q-2 6 3 8q6 2 8 -4q1 -4 -4 -8q-6 -2 -7 4zM197 430q0 6 6 6t6 -6t-6 -6t-6 6z
M158 424q-7 -2 -8 4q-2 5 3 7q7 2 9 -3q2 -6 -4 -8zM365 419q-6 -2 -8 3q-2 6 4 8t7 -4q2 -5 -3 -7zM310 422q-1 2 0.5 4.5t3.5 3.5q6 2 7 -4q2 -5 -4 -7q-5 -2 -7 3zM267 428q6 2 7 -4q2 -5 -3 -7t-7 3t3 8zM222 428q5 0 5 -6t-5 -6q-6 0 -6 6t6 6zM347 407q-2 4 3 6
q3 0 5 -1q9 6 20 9q1 0 1 0.5t1 0.5q17 6 35 3.5t34 -11.5q34 -19 48 -65q2 -7 3 -12.5t2 -10.5q0 -7 -6 -9q-5 -2 -9 0q-4 4 -4 6q-1 10 -5 20q-13 41 -44 57q-23 11 -48 3q-4 -1 -7.5 -3t-7.5 -4q1 0 2 -1q9 -4 12.5 -14.5t-1.5 -18.5q-3 -7 -12 -11q-10 -3 -21 2
q-3 2 -5.5 4.5l-4.5 4.5q-4 -13 -3.5 -29t6.5 -36q3 -7 -3 -13v-1q2 -5 -3 -7q-6 -2 -8 4v4q-1 1 -2 2.5l-3 4.5q-3 9 -4.5 18.5t-2.5 19.5q-3 0 -7 4q-2 5 5 7q1 1 2 1q1 19 8.5 36t23.5 30zM130 414q-6 -2 -8 4q-2 5 4 7q5 2 7 -4q2 -5 -3 -7zM169 420q0 5 6 5t6 -5
q0 -6 -6 -6t-6 6zM329 413q-2 5 4 7q5 2 7 -3q2 -6 -4 -8q-5 -2 -7 4zM285 420q5 2 7 -4q2 -5 -3 -7t-7 4q-2 5 3 7zM239 418q5 2 7 -4q2 -5 -4 -7q-5 -2 -7 4q-2 5 4 7zM191 418q5 2 7 -4q2 -5 -3 -7t-7 3q-2 6 3 8zM148 405q-5 -2 -7 3q-2 6 3 8q6 2 8 -4q2 -5 -4 -7z
M304 411q6 2 8 -4t-4 -7q-6 -2 -8 3q-2 6 4 8zM256 410q7 2 9 -3t-4 -7t-8 3t3 7zM206 403q0 6 7 6q5 0 5 -6t-5 -6q-7 0 -7 6zM163 408q6 2 8 -3q2 -6 -4 -8q-5 -2 -7 4q-2 5 3 7zM120 395q-5 -2 -7 4q-2 5 4 7q5 2 7 -3q2 -6 -4 -8zM326 392q-5 -2 -7 4q-2 5 4 7q5 2 7 -3
q2 -6 -4 -8zM276 401q5 2 7 -3q2 -6 -3 -8t-7 4q-2 5 3 7zM229 401q5 2 7 -4q2 -5 -4 -7q-5 -2 -7 4q-2 5 4 7zM131 392q-2 5 4 7q5 2 7 -4q2 -5 -4 -7q-5 -2 -7 4zM178 394q0 5 6 5t6 -5q0 -6 -6 -6t-6 6zM294 394q5 2 7 -4q2 -5 -3 -7t-7 3q-2 6 3 8zM248 392q5 2 7 -4
q2 -5 -4 -7q-5 -2 -7 3q-2 6 4 8zM200 391q5 2 8 -3q2 -6 -4 -7q-5 -2 -7 3t3 7zM111 379q-6 -2 -8 3q-2 6 4 7q5 2 7 -3t-3 -7zM153 389q6 2 8 -3q3 -5 -3 -7t-8 3t3 7zM314 384q5 2 7 -3q2 -6 -3 -8q-6 -2 -8 4q-3 5 4 7zM274 381q2 -7 -4 -9q-5 -2 -7 5q-2 5 3 7
q6 2 8 -3zM306 266q-5 -2 -7 3q0 1 -0.5 1h-0.5q-5 -2 -9 1q-3 2 -3 7q-1 8 -5 19q-11 32 -39 46q-25 13 -51 5l-1 -1q-8 -3 -17 -8q2 0 6 -2q9 -4 12.5 -13.5t-0.5 -17.5t-13 -11q-10 -3 -18 1t-13 12q-7 -22 0 -51q14 -1 26 -10v-0.5t1 -0.5q4 0 5 -4q2 -5 -4 -7h-4
q-4 -2 -6 1q-10 7 -24 7h-6t-6 -2q-4 -1 -7 -3l-6 -4q0 -1 -2 -1q-5 -2 -8 2q-2 1 -2 5q0 2 2 3q-4 0 -4 3q-2 6 4 7q5 2 7 -3v-1q3 2 5.5 3.5t5.5 2.5h3q-3 12 -3 24q-2 2 -3 4q-2 5 4 7q1 13 8 30q9 20 27 34v1q-2 5 3 7q4 1 7 -2q8 5 15 6q1 1 1.5 1h0.5q2 4 4 5
q4 1 7 -2q12 1 22 0q-3 1 -4 4q-2 6 4 8q5 2 7 -3q2 -7 -3 -9h-1q3 -1 5.5 -1.5t5.5 -1.5q0 6 4 7q5 2 7 -4q1 -3 -2 -6q6 -2 10 -4q0 4 4 4q6 2 8 -3q1 -4 -2 -7q14 -9 23 -23q5 0 5 -4q3 -2 0 -5q6 -9 9 -19q2 -7 2.5 -12.5t1.5 -10.5v-2q6 0 6 -5q2 -6 -4 -7zM172 382
q6 2 8 -4t-4 -8q-5 -2 -7 4t3 8zM126 380q5 2 7 -5q2 -5 -4 -7q-5 -2 -7 4t4 8zM289 363q-5 -2 -7 4q-2 5 3 7t7 -4q2 -5 -3 -7zM144 372q5 2 7 -4q2 -5 -4 -7q-5 -2 -7 3q-2 6 4 8zM99 358q-6 0 -6 6t6 6q5 0 5 -6t-5 -6zM311 363q2 -6 -4 -7q-6 -2 -8 3t4 7t8 -3zM116 362
q5 2 7 -3q2 -6 -3 -8t-7 4q-2 5 3 7zM279 346q-5 -2 -7 4q-2 5 3 7q6 2 8 -4q2 -5 -4 -7zM91 342q-5 -2 -7 3q-2 6 3 8q6 2 8 -4q2 -5 -4 -7zM135 353q5 2 7 -4q2 -5 -4 -7q-5 -2 -7 4q-2 5 4 7zM298 337q-5 -2 -7 4q-3 5 3 7q5 2 7 -4q2 -5 -3 -7zM107 343q5 2 7 -3t-3 -7
q-2 -1 -5 0t-4 3q-2 5 5 7zM129 324q-5 -2 -7 5q-2 5 3 7t7 -4q2 -5 -3 -8zM82 322q-5 -2 -7 5q-2 5 3 7t7 -4t-3 -8zM96 326q6 2 8 -4q3 -5 -4 -7q-5 -2 -7 3t3 8zM303 321q6 2 8 -4t-4 -7q-5 -2 -7 3q-2 6 3 8zM123 313q2 -6 -3 -8q-6 -2 -8 4q-2 5 4 7q5 2 7 -3zM72 305
q-5 -2 -7 4q-2 5 4 7q5 2 7 -4q2 -5 -4 -7zM420 305q-6 -2 -8 3q-3 5 4 7q5 2 7 -3t-3 -7zM467 305q-6 -2 -8 3q-2 6 4 7q6 2 8 -3t-4 -7zM87 307q5 2 7 -4q2 -5 -3 -7t-7 3q-2 6 3 8zM438 295q-5 -2 -7 4q-2 5 4 7q5 2 7 -4q2 -5 -4 -7zM391 295q-5 -2 -7 4q-2 5 3 7t7 -4
q2 -5 -3 -7zM110 289q-6 -2 -8 3q-2 6 4 7q6 2 8 -3t-4 -7zM63 286q-5 -2 -7 4q-2 5 4 7q5 3 7 -3t-4 -8zM410 286q-5 -2 -7 3q-2 6 3 8q6 2 8 -4t-4 -7zM363 286q-6 -2 -8 3t4 7t8 -3t-4 -7zM477 292q40 19 37 -53q-2 -33 -14.5 -73t-42 -74.5t-82.5 -53.5q0 -5 -4 -6
q-5 -2 -7 3q-5 -1 -9.5 -2t-9.5 -2l1 -1q2 -5 -4 -7q-5 -2 -7 3v4q-10 -1 -19 0t-19 2l2 -3q2 -5 -4 -7q-5 -2 -7 3q-2 6 3 8h1q-5 0 -11 2q0 -3 -4 -5q-5 -2 -7 3q-1 3 0 6l-7 3q-2 -4 -4 -5q-6 -2 -8 4q-1 3 1 5l-9 5q-2 -4 -4 -4q-5 -2 -7 3q-2 4 2 6q-3 2 -5.5 4t-4.5 3
q0 -1 0.5 -1t0.5 -1q2 -5 -4 -7q-5 -2 -7 4q-2 5 4 7h3q-17 14 -28 26q-6 -2 -8 3q0 3 1 4q-12 13 -20 27q-5 -2 -7 4q-2 4 2 6q-2 5 -5 9t-5 8q-2 0 -2 3q-1 2 0 3q-2 4 -2 6q-3 7 -1 14q-5 0 -6 4q-2 5 3 7t7 -3q1 0 1 -0.5v-0.5q4 5 17 9q0 3 4 5q3 1 7 -3q5 1 9 2l8 2v1
q-2 5 4 7q5 2 8 -3v-2q5 1 10.5 2.5t10.5 2.5q-3 0 -5 4q-2 5 4 7q5 2 7 -4q2 -4 -2 -6q6 2 12.5 3.5t12.5 3.5q-4 0 -6 4q-2 6 4 8t8 -3q2 -4 -2 -8q11 3 20 5.5t19 6.5q0 1 2 1q2 2 2 0l23 7l1.5 1.5l1.5 1.5h4q5 2 10.5 3.5t10.5 2.5q2 3 3 3q4 1 5 0q5 2 10.5 4t10.5 3
q0 2 3 3h4q5 2 10.5 4t11.5 3l2 2h3q20 8 35 14.5t23 9.5zM454 295q5 2 7 -3q3 -5 -4 -7q-5 -2 -7 3t4 7zM310 287q-3 5 3 7q5 2 7 -3t-3 -7t-7 3zM78 290q5 2 7 -4q2 -5 -4 -7q-5 -2 -7 4q-2 5 4 7zM382 276q-5 -2 -7 4q-2 5 3 7q6 2 8 -3q2 -6 -4 -8zM430 275
q-2 -1 -4.5 0.5t-3.5 3.5q-2 5 4 7q5 2 7 -4q2 -5 -3 -7zM53 269q-6 -2 -8 3q-2 6 4 8t8 -3q2 -7 -4 -8zM103 277q2 -6 -3 -8t-7 3q-2 6 3 8t7 -3zM353 266q-5 -2 -7 3q-2 7 4 9q5 2 7 -5q2 -5 -4 -7zM401 265q-5 -2 -7 3q-2 6 3 8q6 2 7 -4q2 -5 -3 -7zM119 261q-5 -2 -7 4
q-2 5 3 7t7 -3q2 -6 -3 -8zM68 270q6 2 8 -4q2 -5 -4 -7q-5 -2 -7 4q-2 5 3 7zM326 256q-4 -1 -8 4q-2 5 4 7q5 2 7 -3q2 -6 -3 -8zM278 256q-5 -2 -7 4q-2 5 4 7q5 2 7 -4q2 -5 -4 -7zM373 255q-5 -2 -7 4q-2 5 4 7q5 2 7 -4q2 -5 -4 -7zM232 254q-5 -2 -7 4q-3 5 3 7
q5 2 7 -4q2 -5 -3 -7zM90 252q-5 -2 -7 3q-2 6 4 8q5 2 7 -4q2 -5 -4 -7zM250 247q-6 -2 -8 3q-1 4 4 8q5 2 7 -4q2 -5 -3 -7zM297 247q-5 -2 -7 3q-2 6 3 8q6 2 8 -4q2 -5 -4 -7zM341 256q5 2 7 -3t-3 -7q-6 -2 -8 3t4 7zM203 245q-5 -2 -7 3t3 7t7 -3q3 -5 -3 -7zM61 253
q5 0 5 -5q0 -6 -5 -6q-6 0 -6 6q0 5 6 5zM266 248q5 2 7 -3q2 -6 -4 -8q-5 -2 -7 4q-2 5 4 7zM222 237q-5 -2 -7 4q-2 5 3 7t7 -3q2 -6 -3 -8zM317 236q-5 -2 -7 4q-3 5 3 7q5 2 7 -4q3 -5 -3 -7zM77 244q6 2 8 -4q2 -5 -4 -7q-5 -2 -7 4q-3 5 3 7zM241 228q-6 -2 -8 4
q-2 5 4 7q5 2 7 -4q2 -5 -3 -7zM193 228q-5 -2 -7 3q-2 6 4 8q5 2 7 -4q2 -5 -4 -7zM288 227q-5 -2 -7 3q-2 6 4 8q5 2 7 -4q2 -5 -4 -7zM96 236q5 2 7 -3t-4 -7q-5 -2 -7 3t4 7zM57 231q2 -5 -5 -7q-5 -2 -7 3t4 7t8 -3zM213 218q-7 -2 -9 3q-2 6 5 8q5 2 7 -3q2 -6 -3 -8z
M166 217q-6 -2 -8 4t4 8q5 2 7 -3q2 -7 -3 -9zM72 215q-6 -2 -8 4t4 8q5 2 7 -4t-3 -8zM140 215q2 -5 -3 -7t-7 3q-2 6 3 8t7 -4zM180 219q5 2 7 -4q2 -5 -3 -7t-7 4q-2 5 3 7zM90 206q-5 -2 -7 3q-2 6 3 8q6 2 8 -4q2 -5 -4 -7zM106 209q5 3 7 -3t-4 -8t-8 4q-2 5 5 7z
M152 209q6 2 8 -3t-5 -7q-5 -2 -7 3t4 7zM66 204q2 -6 -4 -8q-5 -2 -7 4q-3 5 4 7q5 2 7 -3zM81 189q-6 -2 -8 4q-2 5 4 7q5 2 7 -4q2 -5 -3 -7zM128 189q-6 -2 -8 4q-2 5 4 7q5 2 7 -4q2 -5 -3 -7zM99 180q-5 -2 -7 3t3 7t7 -3t-3 -7zM75 177q2 -6 -4 -8q-5 -2 -7 5
q-2 5 4 7q5 2 7 -4zM116 180q5 2 7 -4t-4 -8q-5 -2 -7 5q-2 5 4 7zM133 172q6 2 8 -4q2 -5 -4 -7q-5 -2 -7 3t3 8zM91 159q-6 -2 -8 3t4 7q5 2 7 -3t-3 -7zM109 151q-6 -2 -8 4q-2 5 5 7q5 2 7 -4q2 -5 -4 -7zM128 142q-5 -2 -7 3q-2 6 4 8q5 2 7 -4q2 -5 -4 -7zM84 149
q2 -5 -3 -7t-7 3t3 7t7 -3zM144 145q6 0 6 -5q0 -6 -6 -6q-5 0 -5 6q0 5 5 5zM103 138q0 -6 -5 -6q-6 0 -6 6q0 5 6 5q5 0 5 -5zM118 125q-5 -2 -7 4q-2 5 4 7q5 2 7 -4q2 -5 -4 -7zM86 126q5 2 7 -3q2 -6 -3 -8q-6 -2 -8 3q-2 6 4 8zM137 115q-5 -2 -7 3q-1 6 3 8q6 2 8 -3
q2 -6 -4 -8zM148 111q-2 5 3 7t9 -4q2 -5 -5 -7q-5 -2 -7 4zM113 112q2 -5 -4 -7q-1 -1 -4 0.5t-4 3.5q-2 5 5 7q5 2 7 -4zM131 105q2 -5 -4 -7q-5 -2 -7 3q-2 6 4 8q5 2 7 -4zM171 109q5 2 7 -4q2 -5 -3 -7t-7 3q-2 6 3 8zM373 59q2 1 5 2l6 2q-16 19 -39 29.5t-45 9.5
t-34 -15q-10 2 -17.5 2.5t-16.5 -2.5q8 -7 11 -10t14 -10q8 -4 15 -7t14 -5q18 -5 38 -5q22 0 49 9zM150 96q1 -4 -4 -8q-5 -2 -7 4q-2 5 3 7q6 2 8 -3zM168 88q2 -5 -3 -7t-7 4q-2 5 3 7t7 -4zM115 90q5 2 7 -4q2 -5 -4 -7q-5 -2 -7 4q-2 5 4 7zM133 82q5 2 7 -3t-4 -7
q-5 -2 -7 3t4 7zM177 75q-2 5 3 7t7 -3t-3 -7t-7 3zM205 72q2 -7 -3 -9q-6 -2 -8 4t4 8q5 2 7 -3zM151 73q7 2 9 -5q3 -5 -5 -7q-5 -2 -7 4t3 8zM177 61q2 -5 -3 -7t-7 3q-2 6 3 8t7 -4zM189 55q5 2 7 -3t-3 -7t-7 3q-3 5 3 7zM208 48q5 2 7 -4q2 -5 -3 -7q-7 -2 -9 4
q-2 5 5 7zM227 39q5 2 7 -4q2 -5 -4 -7q-5 -2 -7 3q-2 6 4 8zM179 38q5 2 7 -3t-3 -7t-7 3t3 7zM244 31q6 2 8 -3q2 -6 -4 -8q-5 -2 -7 4q-2 5 3 7zM311 24q5 2 7 -4t-3 -8q-6 -2 -8 4q-2 7 4 8zM264 22q5 2 7 -5q3 -5 -3 -7q-5 -2 -7 4t3 8zM282 13q5 2 7 -3t-3 -7t-7 3
t3 7z" />
    <glyph glyph-name="tt" unicode="tt" horiz-adv-x="831" 
d="M261 652v-147h171q60 0 91.5 34.5t55.5 107.5h55v-142h140v-106h-140v-218q0 -34 15.5 -53.5t46.5 -19.5q27 0 46.5 6t36.5 17v-101q-19 -19 -47.5 -32t-71.5 -13q-68 0 -110.5 43.5t-42.5 119.5v251h-246v-218q0 -34 15.5 -53.5t46.5 -19.5q27 0 46.5 6t36.5 17v-101
q-19 -19 -47.5 -32t-71.5 -13q-68 0 -110.5 43.5t-42.5 119.5v251h-91v65q48 17 88.5 64t64.5 124h65z" />
    <glyph glyph-name=".notdef" horiz-adv-x="512" 
d="M51 -240h410v960h-410v-960zM102 -189v858h308v-858h-308z" />
    <glyph glyph-name=".null" horiz-adv-x="0" 
 />
    <glyph glyph-name="nonmarkingreturn" horiz-adv-x="341" 
 />
    <glyph glyph-name="NULL" horiz-adv-x="0" 
 />
    <glyph glyph-name="NULL" horiz-adv-x="0" 
 />
    <glyph glyph-name="CR" unicode="&#xd;" horiz-adv-x="300" 
 />
    <glyph glyph-name="space" unicode=" " horiz-adv-x="300" 
 />
    <glyph glyph-name="exclam" unicode="!" horiz-adv-x="320" 
d="M216 670v-440h-112v440h112zM160 142q33 0 56.5 -23.5t23.5 -56.5t-23.5 -56.5t-56.5 -23.5t-56.5 23.5t-23.5 56.5t23.5 56.5t56.5 23.5z" />
    <glyph glyph-name="quotedbl" unicode="&#x22;" horiz-adv-x="452" 
d="M382 695v-274h-112v274h112zM182 695v-274h-112v274h112z" />
    <glyph glyph-name="numbersign" unicode="#" horiz-adv-x="810" 
d="M660 255v-100h-132l-47 -155h-98l46 155h-143l-48 -155h-98l47 155h-107v100h137l42 138h-109v110h142l51 167h101l-51 -167h142l51 167h101l-52 -167h95v-110h-129l-42 -138h101zM316 255h144l42 138h-143z" />
    <glyph glyph-name="dollar" unicode="$" horiz-adv-x="562" 
d="M230 705h94v-56q42 -5 77.5 -18t59.5 -28v-125q-32 21 -72 38t-87 17q-24 0 -47 -7t-38 -21.5t-15 -37.5q0 -30 26 -45.5t65 -30.5l79 -32q65 -25 94.5 -65t29.5 -90q0 -46 -22.5 -82.5t-61.5 -61.5t-88 -35v-77h-94v73q-44 6 -83.5 22.5t-69.5 38.5v125
q39 -29 87.5 -49.5t103.5 -20.5q38 0 65 15.5t27 45.5q0 23 -22 38.5t-48 25.5l-99 36q-72 26 -96.5 70.5t-24.5 97.5q0 47 21.5 83.5t57.5 61t81 34.5v60z" />
    <glyph glyph-name="percent" unicode="%" horiz-adv-x="824" 
d="M575 705l84 -42l-411 -683l-81 42zM192 685q45 0 79.5 -20.5t53.5 -55.5t19 -77t-19 -77t-53.5 -55.5t-79.5 -20.5t-79.5 20.5t-53.5 55.5t-19 77t19 77t53.5 55.5t79.5 20.5zM193 598q-27 0 -45.5 -19.5t-18.5 -46.5t18.5 -46.5t45.5 -19.5t45.5 19.5t18.5 46.5
t-18.5 46.5t-45.5 19.5zM632 291q45 0 79.5 -20.5t53.5 -55.5t19 -77t-19 -77t-53.5 -55.5t-79.5 -20.5t-79.5 20.5t-53.5 55.5t-19 77t19 77t53.5 55.5t79.5 20.5zM633 204q-27 0 -45.5 -19.5t-18.5 -46.5t18.5 -46.5t45.5 -19.5t45.5 19.5t18.5 46.5t-18.5 46.5
t-45.5 19.5z" />
    <glyph glyph-name="ampersand" unicode="&#x26;" horiz-adv-x="742" 
d="M327 685q54 0 100.5 -22t75 -60t28.5 -87q0 -45 -22 -76.5t-55 -55.5t-67 -45q-4 -2 -7 -5q20 -23 41 -46t43 -46q17 24 33 50t34 58h138q-32 -55 -63 -104t-61 -90q36 -37 74 -76t78 -80h-159q-17 17 -33 33.5t-32 33.5q-38 -36 -86.5 -59t-116.5 -23q-66 0 -116.5 23.5
t-79.5 65t-29 96.5q0 48 22 82t57 59.5t75 45.5q-32 34 -54 70.5t-22 85.5q0 51 27.5 90t73.5 60.5t103 21.5zM262 502q0 -22 13.5 -44t34.5 -46q35 20 58.5 42t23.5 53q0 28 -20.5 44t-45.5 16q-26 0 -45 -16.5t-19 -48.5zM189 180q0 -37 27.5 -57t66.5 -20q38 0 63.5 13
t47.5 36q-28 30 -57 61.5t-61 64.5q-37 -21 -62 -43t-25 -55z" />
    <glyph glyph-name="quotesingle" unicode="'" horiz-adv-x="252" 
d="M182 670v-274h-112v274h112z" />
    <glyph glyph-name="parenleft" unicode="(" horiz-adv-x="383" 
d="M348 690q-30 -34 -57.5 -86t-48.5 -114t-33 -125.5t-12 -119.5q0 -60 12 -124t33 -124.5t48.5 -111.5t57.5 -85h-121q-41 43 -78 112.5t-60.5 155.5t-23.5 177q0 65 13.5 130t36.5 125t52 109t60 81h121z" />
    <glyph glyph-name="parenright" unicode=")" horiz-adv-x="403" 
d="M55 690q30 -34 57.5 -86t48.5 -114t33 -125.5t12 -119.5q0 -60 -12 -124t-33 -124.5t-48.5 -111.5t-57.5 -85h121q41 43 78 112.5t60.5 155.5t23.5 177q0 65 -13.5 130t-36.5 125t-52 109t-60 81h-121z" />
    <glyph glyph-name="asterisk" unicode="*" horiz-adv-x="496" 
d="M297 716l-5 -113l98 41l31 -93l-102 -30l72 -90l-79 -58l-64 98l-63 -98l-80 58l73 90l-103 30l32 93l98 -41l-6 113h98z" />
    <glyph glyph-name="plus" unicode="+" horiz-adv-x="550" 
d="M470 373v-120h-135v-136h-120v136h-135v120h135v135h120v-135h135z" />
    <glyph glyph-name="comma" unicode="," horiz-adv-x="283" 
d="M113 115l112 -28l-100 -252l-92 16z" />
    <glyph glyph-name="hyphen" unicode="-" horiz-adv-x="421" 
d="M361 318v-120h-301v120h301z" />
    <glyph glyph-name="period" unicode="." horiz-adv-x="276" 
d="M138 142q33 0 56.5 -23.5t23.5 -56.5t-23.5 -56.5t-56.5 -23.5t-56.5 23.5t-23.5 56.5t23.5 56.5t56.5 23.5z" />
    <glyph glyph-name="slash" unicode="/" horiz-adv-x="444" 
d="M404 705l-266 -905h-98l263 905h101z" />
    <glyph glyph-name="zero" unicode="0" 
d="M289 685q86 0 143.5 -47.5t86 -127t28.5 -175.5t-28.5 -175.5t-86 -127t-143.5 -47.5t-143.5 47.5t-86 127t-28.5 175.5t28.5 175.5t86 127t143.5 47.5zM289 564q-40 0 -66.5 -30.5t-39.5 -82t-13 -116.5t13 -116.5t39.5 -81.5t66.5 -30t66.5 30t40 81.5t13.5 116.5
t-13.5 116.5t-40 82t-66.5 30.5z" />
    <glyph glyph-name="one" unicode="1" 
d="M505 123v-123h-413v123h137v350q-30 -25 -65 -38t-66 -20v135q50 15 97.5 47t79.5 73h92v-547h138z" />
    <glyph glyph-name="two" unicode="2" 
d="M274 685q69 0 120.5 -25.5t80.5 -71t29 -106.5q0 -50 -15.5 -91.5t-44.5 -82t-70.5 -86.5t-94.5 -105h230v-117h-437v56q96 104 161.5 175.5t99 123t33.5 91.5q0 51 -33.5 79.5t-83.5 28.5q-46 0 -90 -24t-72 -54v142q30 26 80 46.5t107 20.5z" />
    <glyph glyph-name="three" unicode="3" 
d="M254 685q71 0 125.5 -25t86 -68.5t31.5 -99.5q0 -45 -20 -76.5t-50 -50.5t-61 -25q31 -7 61 -26.5t50 -51t20 -76.5q0 -59 -32.5 -104t-87.5 -71t-124 -26q-54 0 -100.5 16.5t-73.5 39.5v131q34 -23 71 -43.5t88 -20.5t86 24t35 72q0 28 -18 46.5t-46.5 28t-60.5 9.5h-55
v108h55q52 0 88.5 15t36.5 58q0 44 -37.5 68.5t-87.5 24.5q-43 0 -76 -17.5t-61 -45.5v130q26 24 66 40t91 16z" />
    <glyph glyph-name="four" unicode="4" 
d="M448 670v-409h91v-113h-91v-148h-128v148h-282v82q82 90 165 197.5t158 242.5h87zM320 418q-30 -45 -56.5 -83t-57.5 -74h114v157z" />
    <glyph glyph-name="five" unicode="5" 
d="M474 670v-124h-243v-141q17 7 41 11.5t51 4.5q50 0 93.5 -24.5t70.5 -68t27 -102.5q0 -78 -35 -131.5t-93 -81.5t-129 -28q-67 0 -114 21.5t-73 42.5v124q36 -22 76 -43.5t92 -21.5q60 0 99 25.5t39 76.5q0 46 -39.5 74t-98.5 28q-38 0 -69.5 -8t-59.5 -17v383h365z" />
    <glyph glyph-name="six" unicode="6" 
d="M459 670q-40 -39 -89 -84.5t-91.5 -94t-64.5 -95.5q23 23 51 37t61 14q61 0 109 -28.5t76 -77t28 -109.5q0 -67 -31.5 -123.5t-86.5 -90t-126 -33.5q-67 0 -124 31.5t-92 89t-35 137.5q0 67 26 131t65 121t79.5 102t69.5 73h175zM293 327q-45 0 -77.5 -30.5t-32.5 -75.5
q0 -49 32.5 -81t77.5 -32q44 0 76 32t32 81q0 45 -32 75.5t-76 30.5z" />
    <glyph glyph-name="seven" unicode="7" 
d="M537 670v-57q-54 -90 -97 -166t-73.5 -146.5t-47 -143.5t-16.5 -157h-160q0 99 33 191.5t83 181t101 173.5h-298v124h475z" />
    <glyph glyph-name="eight" unicode="8" 
d="M288 685q58 0 106 -22.5t76.5 -63.5t28.5 -97q0 -58 -28 -93.5t-64 -55.5q43 -18 77.5 -59.5t34.5 -98.5q0 -61 -30.5 -108.5t-82.5 -74.5t-118 -27t-118.5 27t-82.5 74.5t-30 108.5q0 57 34 98.5t78 59.5q-37 20 -64.5 55.5t-27.5 93.5q0 56 28 97t76 63.5t107 22.5z
M288 569q-35 0 -61.5 -24t-26.5 -63t26.5 -62.5t61.5 -23.5q34 0 61 23.5t27 62.5t-27 63t-61 24zM288 297q-40 0 -70.5 -27t-30.5 -70t28.5 -71t72.5 -28q43 0 72 28t29 71t-31 70t-70 27z" />
    <glyph glyph-name="nine" unicode="9" 
d="M118 0q40 39 89 84.5t91.5 94t64.5 95.5q-23 -23 -51 -37t-61 -14q-61 0 -109 28.5t-76 77t-28 109.5q0 67 31.5 123.5t86.5 90t126 33.5q67 0 124 -31.5t92 -89t35 -137.5q0 -67 -26 -131t-65 -121t-79.5 -102t-69.5 -73h-175zM284 343q45 0 77.5 30.5t32.5 75.5
q0 49 -32.5 81t-77.5 32q-44 0 -76 -32t-32 -81q0 -45 32 -75.5t76 -30.5z" />
    <glyph glyph-name="colon" unicode=":" horiz-adv-x="320" 
d="M160 542q33 0 56.5 -23.5t23.5 -56.5t-23.5 -56.5t-56.5 -23.5t-56.5 23.5t-23.5 56.5t23.5 56.5t56.5 23.5zM160 142q33 0 56.5 -23.5t23.5 -56.5t-23.5 -56.5t-56.5 -23.5t-56.5 23.5t-23.5 56.5t23.5 56.5t56.5 23.5z" />
    <glyph glyph-name="semicolon" unicode=";" horiz-adv-x="364" 
d="M198 542q33 0 56.5 -23.5t23.5 -56.5t-23.5 -56.5t-56.5 -23.5t-56.5 23.5t-23.5 56.5t23.5 56.5t56.5 23.5zM143 115l112 -28l-100 -252l-92 16z" />
    <glyph glyph-name="less" unicode="&#x3c;" horiz-adv-x="550" 
d="M495 593v-138l-276 -152l276 -165v-138l-435 276v51z" />
    <glyph glyph-name="equal" unicode="=" horiz-adv-x="551" 
d="M471 471v-120h-391v120h391zM471 271v-120h-391v120h391z" />
    <glyph glyph-name="greater" unicode="&#x3e;" horiz-adv-x="550" 
d="M50 593v-138l276 -152l-276 -165v-138l435 276v51z" />
    <glyph glyph-name="question" unicode="?" horiz-adv-x="585" 
d="M275 685q60 0 112.5 -24.5t85 -70.5t32.5 -110q0 -39 -18.5 -68t-46 -52t-54.5 -42.5t-45 -38t-17 -40.5l1 -21h-127v40q0 22 17.5 42t43.5 39.5t52.5 40t44 42t17.5 45.5q0 41 -32.5 67t-85.5 26q-52 0 -95.5 -19.5t-79.5 -61.5v132q31 32 80.5 53t114.5 21zM266 142
q33 0 56.5 -23.5t23.5 -56.5t-23.5 -56.5t-56.5 -23.5t-56.5 23.5t-23.5 56.5t23.5 56.5t56.5 23.5z" />
    <glyph glyph-name="at" unicode="@" horiz-adv-x="809" 
d="M405 612q74 0 139.5 -23t115.5 -67t78.5 -106t28.5 -140q0 -60 -25.5 -108t-69 -76t-99.5 -28q-43 0 -72 18.5t-37 44.5q-27 -33 -60 -48t-71 -15q-72 0 -111 50.5t-28 131.5q8 60 37.5 103.5t73 67t92.5 23.5q33 0 59.5 -14t41.5 -35l8 39h88l-45 -191q-11 -45 -5 -69.5
t41 -24.5q18 0 37.5 13t33 41.5t13.5 76.5q0 83 -35.5 137.5t-95.5 81t-133 26.5t-133 -34.5t-95.5 -97t-35.5 -146.5q0 -83 34 -141t93.5 -88.5t136.5 -30.5q64 0 108.5 11.5t92.5 36.5l41 -74q-60 -31 -118 -47.5t-124 -16.5q-102 0 -184 43t-130 122t-48 185
q0 80 28 147.5t78 117t115.5 77t140.5 27.5zM404 348q-44 0 -73.5 -27t-39.5 -75q-10 -45 8.5 -71.5t55.5 -26.5q40 0 69.5 22.5t42.5 79.5l16 67q-33 31 -79 31z" />
    <glyph glyph-name="A" unicode="A" horiz-adv-x="713" 
d="M391 675l312 -675h-163l-51 125h-265l-51 -125h-163l312 675h69zM357 448l-84 -205h168z" />
    <glyph glyph-name="B" unicode="B" horiz-adv-x="695" 
d="M353 686q78 0 136 -24.5t90.5 -67.5t32.5 -99q0 -50 -26.5 -89t-66.5 -60q30 -8 58 -26.5t46 -49t18 -77.5q0 -56 -34 -102.5t-95 -74.5t-142 -28q-44 0 -95 3.5t-97 10t-78 13.5v646q56 12 121 18.5t132 6.5zM353 559q-64 0 -114 -10v-162h125q51 0 80.5 25t29.5 64
q0 40 -35.5 61.5t-85.5 21.5zM239 125q28 -7 64.5 -9.5t58.5 -2.5q58 0 95.5 23t37.5 65t-39 62.5t-94 20.5h-123v-159z" />
    <glyph glyph-name="C" unicode="C" horiz-adv-x="643" 
d="M399 685q63 0 109 -17.5t80 -47.5v-140q-24 18 -50 35t-58.5 28t-76.5 11q-60 0 -109 -29t-78 -78t-29 -112q0 -62 29 -111.5t78 -78t109 -28.5q67 0 112.5 20.5t82.5 50.5v-135q-34 -31 -85 -49.5t-114 -18.5q-72 0 -136 25.5t-113 72t-77 110.5t-28 142t28 142
t77 110.5t113 72t136 25.5z" />
    <glyph glyph-name="D" unicode="D" horiz-adv-x="760" 
d="M360 686q106 0 186 -43t124.5 -120t44.5 -181q0 -99 -42 -179.5t-120 -127.5t-186 -47q-69 0 -137.5 7t-129.5 19v646q62 10 127 18t133 8zM363 556q-30 0 -63 -3t-61 -8v-416q30 -6 62.5 -8.5t61.5 -2.5q66 0 113 28.5t72 78.5t25 112q0 64 -25 113t-72 77.5t-113 28.5z
" />
    <glyph glyph-name="E" unicode="E" horiz-adv-x="654" 
d="M535 398v-113h-296v-162h335v-123h-474v670h474v-120h-335v-152h296z" />
    <glyph glyph-name="F" unicode="F" horiz-adv-x="635" 
d="M502 376v-125h-263v-251h-139v670h457v-125h-318v-169h263z" />
    <glyph glyph-name="G" unicode="G" horiz-adv-x="703" 
d="M423 363h228v-273q-42 -44 -106.5 -74.5t-145.5 -30.5q-72 0 -136 25.5t-113 72t-77 110.5t-28 142t28 142t77 110.5t113 72t136 25.5q63 0 109 -17.5t80 -47.5v-140q-24 18 -50 35t-58.5 28t-76.5 11q-60 0 -109 -29t-78 -78t-29 -112q0 -62 29 -111.5t78 -78t109 -28.5
q46 0 74 11t44 24l1 111h-99v100z" />
    <glyph glyph-name="H" unicode="H" horiz-adv-x="788" 
d="M239 670v-273h311v273h138v-670h-138v272h-311v-272h-139v670h139z" />
    <glyph glyph-name="I" unicode="I" horiz-adv-x="555" 
d="M460 125v-125h-365v125h113v420h-113v125h365v-125h-113v-420h113z" />
    <glyph glyph-name="J" unicode="J" horiz-adv-x="350" 
d="M255 672v-631q0 -85 -31.5 -143.5t-86.5 -95.5t-126 -57l-53 125q158 46 158 165v637h139z" />
    <glyph glyph-name="K" unicode="K" horiz-adv-x="715" 
d="M239 670v-300l255 300h176l-263 -293l293 -377h-182l-206 271l-73 -82v-189h-139v670h139z" />
    <glyph glyph-name="L" unicode="L" horiz-adv-x="637" 
d="M239 670v-545h335v-125h-474v670h139z" />
    <glyph glyph-name="M" unicode="M" horiz-adv-x="864" 
d="M764 675v-675h-139v408l-172 -188h-40l-174 188v-408h-139v675h47l286 -298l284 298h47z" />
    <glyph glyph-name="N" unicode="N" horiz-adv-x="786" 
d="M686 670v-675h-50l-397 409v-404h-139v675h50l397 -415v410h139z" />
    <glyph glyph-name="O" unicode="O" horiz-adv-x="791" 
d="M396 685q72 0 135 -25.5t111.5 -72t76 -110.5t27.5 -142t-27.5 -142t-76 -110.5t-111.5 -72t-135 -25.5t-135.5 25.5t-112 72t-76 110.5t-27.5 142t27.5 142t76 110.5t112 72t135.5 25.5zM396 554q-60 0 -107.5 -29t-74.5 -78t-27 -112q0 -62 27 -111.5t74.5 -78
t107.5 -28.5t107 28.5t74 78t27 111.5q0 63 -27 112t-74 78t-107 29z" />
    <glyph glyph-name="P" unicode="P" horiz-adv-x="665" 
d="M372 670q47 0 92 -16t81.5 -47t58 -74.5t21.5 -99.5q0 -68 -34.5 -120.5t-91.5 -82.5t-124 -30q-45 0 -81 9t-60 21v-230h-139v670h277zM234 540v-198q22 -9 53.5 -15.5t64.5 -6.5q60 0 95.5 33.5t35.5 79.5q0 53 -40 80t-94 27h-115z" />
    <glyph glyph-name="Q" unicode="Q" horiz-adv-x="823" 
d="M396 685q72 0 135 -25.5t111.5 -72t76 -110.5t27.5 -142q0 -79 -28.5 -144t-78 -112t-114.5 -71q57 -23 120 -35t115 -12v-123q-58 0 -124 17.5t-129 50.5t-111 79q-72 0 -135.5 25.5t-112 72t-76 110.5t-27.5 142t27.5 142t76 110.5t112 72t135.5 25.5zM396 554
q-60 0 -107.5 -29t-74.5 -78t-27 -112q0 -62 27 -111.5t74.5 -78t107.5 -28.5t107 28.5t74 78t27 111.5q0 63 -27 112t-74 78t-107 29z" />
    <glyph glyph-name="R" unicode="R" horiz-adv-x="668" 
d="M372 670q47 0 92 -13t81.5 -40t58 -67.5t21.5 -96.5q0 -59 -29.5 -101.5t-77.5 -66t-104 -27.5l241 -258h-183l-233 274v-274h-139v670h272zM239 540v-169q24 -8 53.5 -12.5t59.5 -4.5q60 0 95.5 24.5t35.5 69.5q0 49 -37.5 70.5t-91.5 21.5h-115z" />
    <glyph glyph-name="S" unicode="S" horiz-adv-x="548" 
d="M283 683q58 0 106 -16t81 -37v-137q-36 22 -77 41t-93 19q-26 0 -51.5 -8t-42 -24t-16.5 -41q0 -33 29 -50t71 -34l82 -34q70 -30 103 -73t33 -98q0 -60 -34.5 -105.5t-92 -71.5t-127.5 -26q-59 0 -113 20t-94 49v137q44 -32 97 -54t113 -22q42 0 72 16.5t30 49.5
q0 26 -24.5 42.5t-53.5 27.5l-103 40q-78 30 -105.5 78.5t-27.5 107.5q0 61 33.5 106.5t87.5 71t117 25.5z" />
    <glyph glyph-name="T" unicode="T" horiz-adv-x="621" 
d="M594 670v-125h-214v-542h-138v542h-214v125h566z" />
    <glyph glyph-name="U" unicode="U" horiz-adv-x="759" 
d="M669 672v-407q0 -87 -38.5 -149.5t-104 -96t-146.5 -33.5t-147 33.5t-104.5 96t-38.5 149.5v407h139v-399q0 -77 41.5 -115.5t109.5 -37.5q67 0 109 38t42 115v399h138z" />
    <glyph glyph-name="V" unicode="V" horiz-adv-x="713" 
d="M703 670l-312 -675h-69l-312 675h163l183 -443l184 443h163z" />
    <glyph glyph-name="W" unicode="W" horiz-adv-x="959" 
d="M949 670l-226 -670h-96l-149 431l-149 -431h-96l-223 670h158l124 -423l141 423h93l139 -423l126 423h158z" />
    <glyph glyph-name="X" unicode="X" horiz-adv-x="685" 
d="M675 670l-244 -334l244 -336h-175l-162 231l-158 -231h-170l243 333l-243 337h175l162 -238l153 238h175z" />
    <glyph glyph-name="Y" unicode="Y" horiz-adv-x="681" 
d="M671 670l-259 -417v-253h-142v246l-260 424h163l167 -282l168 282h163z" />
    <glyph glyph-name="Z" unicode="Z" horiz-adv-x="691" 
d="M627 670v-36l-344 -509h344v-125h-563v36l338 509h-316v125h541z" />
    <glyph glyph-name="bracketleft" unicode="[" horiz-adv-x="399" 
d="M364 690v-110h-162v-670h162v-110h-289v890h289z" />
    <glyph glyph-name="backslash" unicode="\" horiz-adv-x="389" 
d="M89 670l313 -870h-98l-316 870h101z" />
    <glyph glyph-name="bracketright" unicode="]" horiz-adv-x="404" 
d="M40 690v-110h162v-670h-162v-110h289v890h-289z" />
    <glyph glyph-name="asciicircum" unicode="^" horiz-adv-x="602" 
d="M332 670l221 -350h-128l-130 208l-117 -208h-128l211 350h71z" />
    <glyph glyph-name="underscore" unicode="_" horiz-adv-x="490" 
d="M490 -11v-120h-490v120h490z" />
    <glyph glyph-name="grave" unicode="`" horiz-adv-x="364" 
d="M127 715l107 -75l-6 -67l-107 75z" />
    <glyph glyph-name="a" unicode="a" horiz-adv-x="636" 
d="M278 518q41 0 83 -19t70 -51v57h127v-505h-127v85q-22 -41 -64 -70.5t-98 -29.5q-61 0 -112.5 31t-82.5 90t-31 143t31.5 144t85 92.5t118.5 32.5zM304 394q-40 0 -68.5 -20.5t-44.5 -53.5t-16 -71q0 -57 34.5 -97t91.5 -40q34 0 63.5 18t48 50.5t18.5 78.5v72
q-27 29 -58.5 46t-68.5 17z" />
    <glyph glyph-name="b" unicode="b" horiz-adv-x="636" 
d="M358 518q65 0 118.5 -32.5t85 -92.5t31.5 -144t-31.5 -143t-83 -90t-111.5 -31q-56 0 -98 29.5t-64 70.5v-85h-127v720h127v-272q28 32 69.5 51t83.5 19zM332 393q-37 0 -68.5 -16.5t-58.5 -45.5v-72q-1 -46 17.5 -78.5t48.5 -50t64 -17.5q57 0 91.5 39.5t34.5 96.5
q0 38 -16 70.5t-45 53t-68 20.5z" />
    <glyph glyph-name="c" unicode="c" horiz-adv-x="492" 
d="M308 518q56 0 92 -18t57 -35v-117q-26 19 -58.5 32t-79.5 13q-38 0 -70.5 -19t-51.5 -51t-19 -73q0 -62 40 -102t101 -40q47 0 79.5 12.5t58.5 31.5v-116q-21 -18 -57 -34.5t-92 -16.5q-77 0 -136.5 36.5t-94 97t-34.5 131.5q0 53 19.5 101t55.5 85.5t84.5 59.5t105.5 22
z" />
    <glyph glyph-name="d" unicode="d" horiz-adv-x="636" 
d="M558 720v-720h-127v85q-22 -41 -64 -70.5t-98 -29.5q-61 0 -112.5 31t-82.5 90t-31 143t31.5 144t85 92.5t118.5 32.5q41 0 83 -19t70 -51v272h127zM304 393q-40 0 -68.5 -20.5t-44.5 -53t-16 -70.5q0 -57 34.5 -97t91.5 -40q34 0 63.5 18t48 50.5t18.5 78.5v72
q-27 29 -58.5 45.5t-68.5 16.5z" />
    <glyph glyph-name="e" unicode="e" 
d="M299 518q74 0 127.5 -32t82 -88.5t28.5 -130.5v-54h-366q10 -51 50 -82t98 -31q55 0 100 22t72 45l-1 -118q-24 -21 -71.5 -42.5t-104.5 -21.5q-75 0 -136.5 34t-98 93t-36.5 135q0 74 33 135t91 98.5t132 37.5zM296 407q-47 0 -79 -29t-44 -78h242q-4 54 -40 80.5
t-79 26.5z" />
    <glyph glyph-name="f" unicode="f" horiz-adv-x="401" 
d="M374 505v-106h-131v-399h-127v399h-77v106h77v45q0 58 24.5 99.5t64.5 63.5t88 22q32 0 56 -7t42 -19v-106q-33 20 -76 19q-30 -1 -51 -19.5t-21 -60.5v-37h131z" />
    <glyph glyph-name="g" unicode="g" horiz-adv-x="636" 
d="M278 518q41 0 83 -19t70 -51v57h127v-492q0 -86 -38 -145.5t-101 -91t-138 -31.5q-67 0 -110 20t-80 46v120q23 -14 48.5 -30t58 -27t75.5 -11q45 0 81 17t56.5 47.5t20.5 69.5v88q-22 -41 -64 -70.5t-98 -29.5q-61 0 -112.5 31t-82.5 90t-31 143t31.5 144t85 92.5
t118.5 32.5zM304 393q-40 0 -68.5 -20.5t-44.5 -53t-16 -70.5q0 -57 34.5 -96.5t91.5 -39.5q34 0 63.5 17.5t48 50t18.5 78.5v72q-27 29 -58.5 45.5t-68.5 16.5z" />
    <glyph glyph-name="h" unicode="h" horiz-adv-x="607" 
d="M358 518q77 0 129 -52t52 -156v-310h-127l-1 293q0 51 -24.5 76t-67.5 25q-34 0 -63.5 -22t-50.5 -52v-320h-127v720h127v-287q23 31 62.5 58t90.5 27z" />
    <glyph glyph-name="i" unicode="i" horiz-adv-x="340" 
d="M184 768q36 0 62 -25.5t26 -60.5q0 -34 -26 -60t-62 -26t-61.5 26t-25.5 60q0 35 25.5 60.5t61.5 25.5zM258 505v-505h-127v397h-81v108h208z" />
    <glyph glyph-name="j" unicode="j" horiz-adv-x="336" 
d="M178 768q35 0 61.5 -25.5t26.5 -60.5q0 -34 -26.5 -60t-61.5 -26q-37 0 -62.5 26t-25.5 60q0 35 25.5 60.5t62.5 25.5zM250 505v-499q0 -103 -47.5 -166.5t-133.5 -94.5l-56 111q53 24 81.5 58t28.5 87v396h-81v108h208z" />
    <glyph glyph-name="k" unicode="k" horiz-adv-x="586" 
d="M205 720v-440l206 225h159l-218 -219l229 -286h-160l-153 201l-63 -63v-138h-127v720h127z" />
    <glyph glyph-name="l" unicode="l" horiz-adv-x="282" 
d="M205 720v-720h-127v720h127z" />
    <glyph glyph-name="m" unicode="m" horiz-adv-x="923" 
d="M205 505v-64q23 29 55.5 53t83.5 24q53 0 96 -24.5t67 -73.5q30 41 70 69.5t93 28.5q51 0 93 -23.5t67.5 -69.5t25.5 -115v-310h-127l-1 293q0 51 -26.5 76t-69.5 25q-33 0 -57 -20.5t-45 -48.5v-325h-127l-1 293q0 51 -26.5 76t-68.5 25q-32 0 -57 -19.5t-45 -45.5v-329
h-127v505h127z" />
    <glyph glyph-name="n" unicode="n" horiz-adv-x="607" 
d="M205 505v-72q23 31 62.5 58t90.5 27q77 0 129 -52t52 -156v-310h-127l-1 293q0 51 -24.5 76t-67.5 25q-34 0 -63.5 -22t-50.5 -52v-320h-127v505h127z" />
    <glyph glyph-name="o" unicode="o" horiz-adv-x="626" 
d="M313 518q74 0 135 -35.5t98.5 -96t37.5 -135.5t-37.5 -135t-98.5 -95.5t-135 -35.5q-73 0 -134.5 35.5t-98.5 95.5t-37 135t37 135.5t98.5 96t134.5 35.5zM313 395q-36 0 -67 -17t-49.5 -49t-18.5 -78t18.5 -78t49.5 -48.5t67 -16.5t67 16.5t50 48.5t19 78t-19 78t-50 49
t-67 17z" />
    <glyph glyph-name="p" unicode="p" horiz-adv-x="636" 
d="M367 518q60 0 111.5 -30.5t83 -89t31.5 -142.5t-31.5 -145t-85 -93.5t-118.5 -32.5q-42 0 -83.5 20.5t-69.5 51.5v-297h-127v745h127v-85q22 41 64 69.5t98 28.5zM335 391q-34 0 -64 -17.5t-48.5 -49.5t-17.5 -77v-73q27 -28 58.5 -46.5t68.5 -18.5q39 0 68 21t45 54.5
t16 71.5q0 57 -34.5 96t-91.5 39z" />
    <glyph glyph-name="q" unicode="q" horiz-adv-x="636" 
d="M278 518q41 0 83 -19t70 -51v57h127v-745h-127v325q-22 -41 -64 -70.5t-98 -29.5q-61 0 -112.5 31t-82.5 90t-31 143t31.5 144t85 92.5t118.5 32.5zM304 393q-40 0 -68.5 -20.5t-44.5 -53t-16 -70.5q0 -57 34.5 -96.5t91.5 -39.5q34 0 63.5 17.5t48 50t18.5 78.5v72
q-27 29 -58.5 45.5t-68.5 16.5z" />
    <glyph glyph-name="r" unicode="r" horiz-adv-x="416" 
d="M396 363q-32 18 -67 18q-44 0 -73 -28.5t-51 -70.5v-282h-127v505h127v-95q26 45 61.5 75t80.5 30q27 0 49 -9v-143z" />
    <glyph glyph-name="s" unicode="s" horiz-adv-x="442" 
d="M241 518q47 0 87 -14t62 -32v-112q-24 16 -58.5 31t-71.5 15q-36 0 -57 -16t-21 -38q0 -16 12 -29.5t46 -23.5l57 -19q115 -34 115 -133q0 -47 -26.5 -83.5t-71 -57.5t-98.5 -21q-51 0 -99 16t-73 35v111q19 -13 46 -25t56 -19.5t53 -7.5q38 0 58.5 13.5t20.5 38.5
q0 19 -17 30t-50 22l-62 22q-58 19 -80 54t-22 83t24.5 83.5t68.5 56t101 20.5z" />
    <glyph glyph-name="t" unicode="t" horiz-adv-x="458" 
d="M261 652v-147h140v-106h-140v-218q0 -34 15.5 -53.5t46.5 -19.5q27 0 46.5 6t36.5 17v-101q-19 -19 -47.5 -32t-71.5 -13q-68 0 -110.5 43.5t-42.5 119.5v251h-91v65q48 17 88.5 64t64.5 124h65z" />
    <glyph glyph-name="u" unicode="u" horiz-adv-x="591" 
d="M524 505v-301q0 -67 -30 -115.5t-81.5 -74.5t-116.5 -26q-66 0 -117.5 26t-81 74.5t-29.5 115.5v301h128l1 -278q0 -59 27 -88t72 -29q44 0 71.5 29t27.5 88v278h129z" />
    <glyph glyph-name="v" unicode="v" horiz-adv-x="576" 
d="M566 505l-239 -505h-81l-236 505h148l127 -313l133 313h148z" />
    <glyph glyph-name="w" unicode="w" horiz-adv-x="790" 
d="M780 505l-175 -505h-92l-118 327l-118 -327h-93l-174 505h138l93 -299l109 299h91l108 -299l93 299h138z" />
    <glyph glyph-name="x" unicode="x" horiz-adv-x="590" 
d="M573 505l-198 -247l205 -258h-159l-126 176l-126 -176h-159l205 258l-198 247h150l128 -162l128 162h150z" />
    <glyph glyph-name="y" unicode="y" horiz-adv-x="597" 
d="M158 505l144 -322l140 322h145l-367 -745h-144l152 277l-218 468h148z" />
    <glyph glyph-name="z" unicode="z" horiz-adv-x="557" 
d="M497 505v-31l-261 -365h271v-109h-454v32l250 365h-235v108h429z" />
    <glyph glyph-name="braceleft" unicode="{" horiz-adv-x="464" 
d="M424 690v-110h-44q-43 0 -64 -16t-27.5 -44t-6.5 -65v-115q0 -31 -18 -55.5t-47 -39.5q29 -15 47 -39t18 -56v-115q0 -37 6.5 -65t27.5 -44t64 -16h44v-110h-94q-52 0 -91.5 24.5t-61.5 66t-22 91.5v121q0 45 -14 63.5t-61 18.5v120q47 0 61 18.5t14 63.5v121q0 51 22 92
t61.5 65.5t91.5 24.5h94z" />
    <glyph glyph-name="bar" unicode="|" horiz-adv-x="260" 
d="M180 705v-905h-100v905h100z" />
    <glyph glyph-name="braceright" unicode="}" horiz-adv-x="464" 
d="M40 690v-110h44q43 0 64 -16t27.5 -44t6.5 -65v-115q0 -31 18 -55.5t47 -39.5q-29 -15 -47 -39t-18 -56v-115q0 -37 -6.5 -65t-27.5 -44t-64 -16h-44v-110h94q52 0 91.5 24.5t61.5 66t22 91.5v121q0 45 14 63.5t61 18.5v120q-47 0 -61 18.5t-14 63.5v121q0 51 -22 92
t-61.5 65.5t-91.5 24.5h-94z" />
    <glyph glyph-name="asciitilde" unicode="~" horiz-adv-x="569" 
d="M509 431q0 -67 -39.5 -111t-101.5 -44q-33 0 -55.5 9.5t-39.5 21.5t-32.5 21.5t-34.5 9.5q-21 0 -32.5 -16.5t-11.5 -39.5h-102q0 68 39.5 111.5t101.5 43.5q33 0 55.5 -9.5t39.5 -21.5t32.5 -21.5t34.5 -9.5q22 0 33 17t11 39h102z" />
    <glyph glyph-name="uni00A0" unicode="&#xa0;" horiz-adv-x="300" 
 />
    <glyph glyph-name="exclamdown" unicode="&#xa1;" horiz-adv-x="320" 
d="M216 -174v440h-112v-440h112zM160 354q33 0 56.5 23.5t23.5 56.5t-23.5 56.5t-56.5 23.5t-56.5 -23.5t-23.5 -56.5t23.5 -56.5t56.5 -23.5z" />
    <glyph glyph-name="cent" unicode="&#xa2;" horiz-adv-x="492" 
d="M353 580v-66q37 -7 62 -21.5t42 -27.5l-1 -117q-20 15 -45 26.5t-58 15.5v-280q33 4 58 15.5t46 26.5v-116q-17 -14 -42 -27.5t-62 -19.5v-69h-95v69q-63 12 -111.5 50t-76.5 92.5t-28 117.5q0 64 28 119.5t76.5 94t111.5 50.5v67h95zM178 250q0 -45 21.5 -79.5
t58.5 -50.5v259q-35 -17 -57.5 -51t-22.5 -78z" />
    <glyph glyph-name="sterling" unicode="&#xa3;" horiz-adv-x="546" 
d="M434 384v-105h-139v-21q0 -43 -15 -76t-39 -54h255v-128h-416v103q38 12 59.5 55.5t21.5 90.5v30h-80v105h80v65q0 77 32 128t82.5 77t106.5 26q41 0 75.5 -13.5t51.5 -30.5v-123q-21 17 -51 29t-62 12q-37 -1 -69 -31.5t-32 -90.5v-48h139z" />
    <glyph glyph-name="currency" unicode="&#xa4;" horiz-adv-x="534" 
d="M267 439q49 0 94 -25l64 64l65 -65l-61 -62q14 -21 21.5 -45t7.5 -51t-7.5 -51.5t-20.5 -44.5l62 -62l-69 -65l-63 63q-44 -24 -93 -24t-93 24l-63 -63l-68 65l61 61q-13 21 -20.5 45t-7.5 52q0 27 7.5 51t21.5 45l-61 62l66 65l64 -64q44 25 93 25zM267 341
q-36 0 -63 -23t-27 -63q0 -41 27 -63.5t63 -22.5t63 22.5t27 63.5q0 40 -27 63t-63 23z" />
    <glyph glyph-name="yen" unicode="&#xa5;" horiz-adv-x="681" 
d="M559 205v-80h-147v-125h-142v125h-147v80h147v41l-3 4h-144v80h95l-208 340h163l167 -282l168 282h163l-212 -340h100v-80h-147v-45h147z" />
    <glyph glyph-name="brokenbar" unicode="&#xa6;" horiz-adv-x="260" 
d="M180 705v-416h-100v416h100zM180 216v-416h-100v416h100z" />
    <glyph glyph-name="section" unicode="&#xa7;" horiz-adv-x="548" 
d="M508 -34q0 -60 -34.5 -105.5t-92 -71.5t-127.5 -26q-59 0 -113 20t-94 49v137q44 -32 97 -54t113 -22q42 0 72 16.5t30 49.5q0 26 -24.5 42.5t-53.5 27.5l-103 40q-78 30 -105.5 76t-27.5 105q0 34 13 60.5t32 46.5q-25 25 -35 55.5t-10 67.5q0 61 33.5 106.5t87.5 71
t117 25.5q58 0 106 -16t81 -37v-137q-36 22 -77 41t-93 19q-26 0 -51.5 -8t-42 -24t-16.5 -41q0 -33 29 -50t71 -34l82 -34q70 -30 103 -70.5t33 -95.5q0 -38 -13 -67.5t-36 -53.5q49 -43 49 -109zM290 161l48 -20q21 16 21 43q0 30 -24.5 48t-53.5 30l-74 30
q-17 -20 -17 -45q0 -33 29.5 -51t70.5 -35z" />
    <glyph glyph-name="dieresis" unicode="&#xa8;" horiz-adv-x="509" 
d="M363 722q28 0 49 -20.5t21 -48.5q0 -29 -21 -49.5t-49 -20.5q-29 0 -49 20.5t-20 49.5q0 28 20 48.5t49 20.5zM153 722q28 0 49 -20.5t21 -48.5q0 -29 -21 -49.5t-49 -20.5q-29 0 -49 20.5t-20 49.5q0 28 20 48.5t49 20.5z" />
    <glyph glyph-name="copyright" unicode="&#xa9;" horiz-adv-x="874" 
d="M437 723q84 0 155.5 -30.5t124.5 -84t82.5 -123.5t29.5 -150t-29.5 -150t-82.5 -123.5t-124.5 -84t-155.5 -30.5t-155.5 30.5t-124.5 84t-82.5 123.5t-29.5 150t29.5 150t82.5 123.5t124.5 84t155.5 30.5zM437 635q-88 0 -154.5 -38.5t-103.5 -106t-37 -155.5t37 -155.5
t103.5 -105.5t154.5 -38t154.5 38t103.5 105.5t37 155.5t-37 155.5t-103.5 106t-154.5 38.5zM459 555q46 0 75 -14.5t46 -28.5v-95q-21 15 -47.5 25.5t-64.5 10.5q-47 0 -81 -33t-34 -83t32.5 -82.5t82.5 -32.5q38 0 64.5 10.5t47.5 25.5v-95q-17 -14 -46 -27.5t-75 -13.5
q-62 0 -110.5 30t-76.5 78.5t-28 106.5t28 107.5t76.5 80t110.5 30.5z" />
    <glyph glyph-name="ordfeminine" unicode="&#xaa;" horiz-adv-x="393" 
d="M183 681q25 0 49.5 -11.5t41.5 -29.5v33h82v-300h-82v50q-13 -24 -38 -41.5t-58 -17.5q-59 0 -99.5 40.5t-40.5 116.5q0 75 42 117.5t103 42.5zM198 602q-35 0 -55.5 -24t-20.5 -57q0 -34 20.5 -55.5t54.5 -21.5q30 0 53.5 21t23.5 61v44q-31 32 -76 32z" />
    <glyph glyph-name="guillemotleft" unicode="&#xab;" horiz-adv-x="605" 
d="M290 32l-235 195v38l235 203v-129l-110 -92l110 -86v-129zM525 32l-235 195v38l235 203v-129l-110 -92l110 -86v-129z" />
    <glyph glyph-name="logicalnot" unicode="&#xac;" horiz-adv-x="600" 
d="M461 373v-241h-114v121h-267v120h381z" />
    <glyph glyph-name="uni00AD" unicode="&#xad;" horiz-adv-x="421" 
d="M361 318v-120h-301v120h301z" />
    <glyph glyph-name="registered" unicode="&#xae;" horiz-adv-x="874" 
d="M437 723q84 0 155.5 -30.5t124.5 -84t82.5 -123.5t29.5 -150t-29.5 -150t-82.5 -123.5t-124.5 -84t-155.5 -30.5t-155.5 30.5t-124.5 84t-82.5 123.5t-29.5 150t29.5 150t82.5 123.5t124.5 84t155.5 30.5zM437 635q-88 0 -154.5 -38.5t-103.5 -106t-37 -155.5t37 -155.5
t103.5 -105.5t154.5 -38t154.5 38t103.5 105.5t37 155.5t-37 155.5t-103.5 106t-154.5 38.5zM469 533q37 0 71 -13.5t56.5 -42t22.5 -72.5q0 -53 -38 -83t-87 -33l142 -153h-108l-139 162v-162h-82v397h162zM389 456v-100q15 -5 32.5 -7.5t35.5 -2.5q35 0 56 14.5t21 41.5
q0 29 -22 41.5t-54 12.5h-69z" />
    <glyph glyph-name="macron" unicode="&#xaf;" horiz-adv-x="550" 
d="M455 714v-95h-360v95h360z" />
    <glyph glyph-name="degree" unicode="&#xb0;" horiz-adv-x="428" 
d="M215 685q50 0 88.5 -23.5t60.5 -62.5t22 -86t-22 -86.5t-60.5 -63t-88.5 -23.5t-89 23.5t-61 63t-22 86.5t22 86t61 62.5t89 23.5zM215 587q-31 0 -52 -22.5t-21 -51.5q0 -31 21 -53t52 -22q30 0 51 22t21 53q0 29 -21 51.5t-51 22.5z" />
    <glyph glyph-name="plusminus" unicode="&#xb1;" horiz-adv-x="531" 
d="M320 504v-110h130v-110h-130v-111h-110v111h-130v110h130v110h110zM451 110v-110h-371v110h371z" />
    <glyph glyph-name="uni00B2" unicode="&#xb2;" horiz-adv-x="280" 
d="M136 678q44 0 73 -25t29 -65q0 -30 -9.5 -51t-29 -44t-49.5 -58h90v-62h-200v30q64 69 94.5 105.5t30.5 61.5q0 40 -46 40q-20 0 -39.5 -11t-32.5 -24v73q13 12 36 21t53 9z" />
    <glyph glyph-name="uni00B3" unicode="&#xb3;" horiz-adv-x="267" 
d="M118 677q47 0 77 -24t30 -61q0 -31 -18 -48t-39 -21q21 -4 40 -21.5t19 -47.5q0 -39 -31.5 -64t-77.5 -25q-24 0 -45 7t-33 17v65q14 -9 30.5 -18t36.5 -9t33 7.5t13 26.5q0 18 -15 25.5t-35 7.5h-22v55h24q20 0 34 5.5t14 21.5q0 17 -14.5 26.5t-33.5 9.5
q-17 0 -31.5 -6.5t-25.5 -17.5v64q12 11 30 18t40 7z" />
    <glyph glyph-name="acute" unicode="&#xb4;" horiz-adv-x="339" 
d="M314 715l-137 -142h-102l105 142h134z" />
    <glyph glyph-name="uni00B5" unicode="&#xb5;" horiz-adv-x="591" 
d="M524 505v-505h-127v53q-13 -33 -41 -49t-63 -16q-32 -1 -58 12.5t-40 39.5v-280h-127v745h128l1 -278q0 -59 27 -88t72 -29q44 0 71.5 29t27.5 88v278h129z" />
    <glyph glyph-name="paragraph" unicode="&#xb6;" horiz-adv-x="662" 
d="M562 -210h-72v789h-85v-789h-75v472h-50q-61 0 -116 21t-89.5 66t-34.5 117q0 74 34.5 119t89.5 65t116 20h282v-880z" />
    <glyph glyph-name="periodcentered" unicode="&#xb7;" horiz-adv-x="320" 
d="M160 423q33 0 56.5 -23.5t23.5 -56.5t-23.5 -56.5t-56.5 -23.5t-56.5 23.5t-23.5 56.5t23.5 56.5t56.5 23.5z" />
    <glyph glyph-name="cedilla" unicode="&#xb8;" horiz-adv-x="351" 
d="M187 2l-4 -60q40 3 66.5 -20.5t26.5 -60.5q0 -45 -31.5 -73t-82.5 -28q-15 0 -39.5 6t-39.5 19l7 65q15 -9 32.5 -16.5t39.5 -7.5q13 0 24 7.5t11 21.5q0 12 -9.5 19t-24.5 7q-8 0 -15.5 -2t-17.5 -7l-20 12l13 118h64z" />
    <glyph glyph-name="uni00B9" unicode="&#xb9;" horiz-adv-x="278" 
d="M238 437v-64h-198v64h66v134q-13 -11 -29 -16.5t-34 -9.5v72q53 14 83 53h51v-233h61z" />
    <glyph glyph-name="ordmasculine" unicode="&#xba;" horiz-adv-x="392" 
d="M196 677q43 0 79 -21t58 -56.5t22 -78.5q0 -44 -22 -79.5t-58 -56t-79 -20.5t-79 20.5t-57.5 56t-21.5 79.5q0 43 21.5 78.5t57.5 56.5t79 21zM196 600q-29 0 -52 -19.5t-23 -59.5q0 -41 23 -60.5t52 -19.5t52 19.5t23 60.5q0 40 -23 59.5t-52 19.5z" />
    <glyph glyph-name="guillemotright" unicode="&#xbb;" horiz-adv-x="605" 
d="M315 468l235 -195v-38l-235 -203v129l110 92l-110 86v129zM80 468l235 -195v-38l-235 -203v129l110 92l-110 86v129z" />
    <glyph glyph-name="onequarter" unicode="&#xbc;" horiz-adv-x="664" 
d="M241 437v-64h-198v64h66v134q-13 -11 -29 -16.5t-34 -9.5v72q53 14 83 53h51v-233h61zM639 670l-495 -670h-98l492 670h101zM549 297v-171h35v-60h-35v-66h-67v66h-125v36q37 40 74 87.5t70 107.5h48zM482 180q-11 -16 -18 -26t-22 -28h40v54z" />
    <glyph glyph-name="onehalf" unicode="&#xbd;" horiz-adv-x="693" 
d="M253 437v-64h-198v64h66v134q-13 -11 -29 -16.5t-34 -9.5v72q53 14 83 53h51v-233h61zM643 670l-495 -670h-98l492 670h101zM533 305q44 0 73 -25t29 -65q0 -30 -9.5 -51t-29 -44t-49.5 -58h90v-62h-200v30q64 69 94.5 105.5t30.5 61.5q0 40 -46 40q-20 0 -39.5 -11
t-32.5 -24v73q13 12 36 21t53 9z" />
    <glyph glyph-name="threequarters" unicode="&#xbe;" horiz-adv-x="684" 
d="M123 677q47 0 77 -24t30 -61q0 -31 -18 -48t-39 -21q21 -4 40 -21.5t19 -47.5q0 -39 -31.5 -64t-77.5 -25q-24 0 -45 7t-33 17v65q14 -9 30.5 -18t36.5 -9t33 7.5t13 26.5q0 18 -15 25.5t-35 7.5h-22v55h24q20 0 34 5.5t14 21.5q0 17 -14.5 26.5t-33.5 9.5
q-17 0 -31.5 -6.5t-25.5 -17.5v64q12 11 30 18t40 7zM639 670l-495 -670h-98l492 670h101zM551 297v-171h35v-60h-35v-66h-67v66h-125v36q37 40 74 87.5t70 107.5h48zM484 180q-11 -16 -18 -26t-22 -28h40v54z" />
    <glyph glyph-name="questiondown" unicode="&#xbf;" horiz-adv-x="585" 
d="M310 -189q-60 0 -112.5 24.5t-85 70.5t-32.5 110q0 39 18.5 68t46 52t54.5 42.5t45 38t17 40.5l-1 21h127v-40q0 -22 -17.5 -42t-43.5 -39.5t-52.5 -40t-44 -42t-17.5 -45.5q0 -41 32.5 -67t85.5 -26q52 0 95.5 19.5t79.5 61.5v-132q-31 -32 -80.5 -53t-114.5 -21z
M319 354q-33 0 -56.5 23.5t-23.5 56.5t23.5 56.5t56.5 23.5t56.5 -23.5t23.5 -56.5t-23.5 -56.5t-56.5 -23.5z" />
    <glyph glyph-name="Agrave" unicode="&#xc0;" horiz-adv-x="713" 
d="M391 675l312 -675h-163l-51 125h-265l-51 -125h-163l312 675h69zM357 448l-84 -205h168zM249 880l107 -75l-6 -67l-107 75z" />
    <glyph glyph-name="Aacute" unicode="&#xc1;" horiz-adv-x="713" 
d="M391 675l312 -675h-163l-51 125h-265l-51 -125h-163l312 675h69zM357 448l-84 -205h168zM527 880l-137 -142h-102l105 142h134z" />
    <glyph glyph-name="Acircumflex" unicode="&#xc2;" horiz-adv-x="713" 
d="M391 675l312 -675h-163l-51 125h-265l-51 -125h-163l312 675h69zM357 448l-84 -205h168zM393 880l130 -144h-107l-60 68l-60 -68h-107l130 144h74z" />
    <glyph glyph-name="Atilde" unicode="&#xc3;" horiz-adv-x="713" 
d="M391 675l312 -675h-163l-51 125h-265l-51 -125h-163l312 675h69zM357 448l-84 -205h168zM538 860q0 -57 -33.5 -89t-82.5 -32q-35 0 -55 11.5t-34.5 23t-31.5 11.5t-26 -12t-9 -30h-81q0 57 33.5 89t82.5 32q35 0 55 -11.5t34.5 -23t32.5 -11.5q17 0 25.5 12t8.5 30h81z
" />
    <glyph glyph-name="Adieresis" unicode="&#xc4;" horiz-adv-x="713" 
d="M391 675l312 -675h-163l-51 125h-265l-51 -125h-163l312 675h69zM357 448l-84 -205h168zM461 887q28 0 49 -20.5t21 -48.5q0 -29 -21 -49.5t-49 -20.5q-29 0 -49 20.5t-20 49.5q0 28 20 48.5t49 20.5zM251 887q28 0 49 -20.5t21 -48.5q0 -29 -21 -49.5t-49 -20.5
q-29 0 -49 20.5t-20 49.5q0 28 20 48.5t49 20.5z" />
    <glyph glyph-name="Aring" unicode="&#xc5;" horiz-adv-x="713" 
d="M391 675l312 -675h-163l-51 125h-265l-51 -125h-163l312 675h69zM357 448l-84 -205h168zM356 894q38 0 63.5 -25.5t25.5 -61.5t-25.5 -61.5t-63.5 -25.5t-64 25.5t-26 61.5t26 61.5t64 25.5zM356 846q-16 0 -28 -11.5t-12 -27.5t12 -27.5t28 -11.5t27.5 11.5t11.5 27.5
t-11.5 27.5t-27.5 11.5z" />
    <glyph glyph-name="AE" unicode="&#xc6;" horiz-adv-x="1082" 
d="M963 398v-113h-296v-162h335v-123h-474v163h-250l-115 -163h-153l483 670h509v-120h-335v-152h296zM353 270h175v248z" />
    <glyph glyph-name="Ccedilla" unicode="&#xc7;" horiz-adv-x="643" 
d="M399 685q63 0 109 -17.5t80 -47.5v-140q-24 18 -50 35t-58.5 28t-76.5 11q-60 0 -109 -29t-78 -78t-29 -112q0 -62 29 -111.5t78 -78t109 -28.5q67 0 112.5 20.5t82.5 50.5v-135q-34 -31 -85 -49.5t-114 -18.5q-72 0 -136 25.5t-113 72t-77 110.5t-28 142t28 142
t77 110.5t113 72t136 25.5zM413 2l-4 -60q40 3 66.5 -20.5t26.5 -60.5q0 -45 -31.5 -73t-82.5 -28q-15 0 -39.5 6t-39.5 19l7 65q15 -9 32.5 -16.5t39.5 -7.5q13 0 24 7.5t11 21.5q0 12 -9.5 19t-24.5 7q-8 0 -15.5 -2t-17.5 -7l-20 12l13 118h64z" />
    <glyph glyph-name="Egrave" unicode="&#xc8;" horiz-adv-x="654" 
d="M535 398v-113h-296v-162h335v-123h-474v670h474v-120h-335v-152h296zM230 880l107 -75l-6 -67l-107 75z" />
    <glyph glyph-name="Eacute" unicode="&#xc9;" horiz-adv-x="654" 
d="M535 398v-113h-296v-162h335v-123h-474v670h474v-120h-335v-152h296zM508 880l-137 -142h-102l105 142h134z" />
    <glyph glyph-name="Ecircumflex" unicode="&#xca;" horiz-adv-x="654" 
d="M535 398v-113h-296v-162h335v-123h-474v670h474v-120h-335v-152h296zM374 880l130 -144h-107l-60 68l-60 -68h-107l130 144h74z" />
    <glyph glyph-name="Edieresis" unicode="&#xcb;" horiz-adv-x="654" 
d="M535 398v-113h-296v-162h335v-123h-474v670h474v-120h-335v-152h296zM443 887q28 0 49 -20.5t21 -48.5q0 -29 -21 -49.5t-49 -20.5q-29 0 -49 20.5t-20 49.5q0 28 20 48.5t49 20.5zM233 887q28 0 49 -20.5t21 -48.5q0 -29 -21 -49.5t-49 -20.5q-29 0 -49 20.5t-20 49.5
q0 28 20 48.5t49 20.5z" />
    <glyph glyph-name="Igrave" unicode="&#xcc;" horiz-adv-x="555" 
d="M460 125v-125h-365v125h113v420h-113v125h365v-125h-113v-420h113zM173 880l107 -75l-6 -67l-107 75z" />
    <glyph glyph-name="Iacute" unicode="&#xcd;" horiz-adv-x="555" 
d="M460 125v-125h-365v125h113v420h-113v125h365v-125h-113v-420h113zM451 880l-137 -142h-102l105 142h134z" />
    <glyph glyph-name="Icircumflex" unicode="&#xce;" horiz-adv-x="555" 
d="M460 125v-125h-365v125h113v420h-113v125h365v-125h-113v-420h113zM317 880l130 -144h-107l-60 68l-60 -68h-107l130 144h74z" />
    <glyph glyph-name="Idieresis" unicode="&#xcf;" horiz-adv-x="555" 
d="M460 125v-125h-365v125h113v420h-113v125h365v-125h-113v-420h113zM385 887q28 0 49 -20.5t21 -48.5q0 -29 -21 -49.5t-49 -20.5q-29 0 -49 20.5t-20 49.5q0 28 20 48.5t49 20.5zM175 887q28 0 49 -20.5t21 -48.5q0 -29 -21 -49.5t-49 -20.5q-29 0 -49 20.5t-20 49.5
q0 28 20 48.5t49 20.5z" />
    <glyph glyph-name="Eth" unicode="&#xd0;" horiz-adv-x="760" 
d="M360 686q106 0 186 -43t124.5 -120t44.5 -181q0 -99 -42 -179.5t-120 -127.5t-186 -47q-69 0 -137.5 7t-129.5 19v646q62 10 127 18t133 8zM363 556q-30 0 -63 -3t-61 -8v-416q30 -6 62.5 -8.5t61.5 -2.5q66 0 113 28.5t72 78.5t25 112q0 64 -25 113t-72 77.5t-113 28.5z
M320 397v-120h-301v120h301z" />
    <glyph glyph-name="Ntilde" unicode="&#xd1;" horiz-adv-x="786" 
d="M686 670v-675h-50l-397 409v-404h-139v675h50l397 -415v410h139zM574 860q0 -57 -33.5 -89t-82.5 -32q-35 0 -55 11.5t-34.5 23t-31.5 11.5t-26 -12t-9 -30h-81q0 57 33.5 89t82.5 32q35 0 55 -11.5t34.5 -23t32.5 -11.5q17 0 25.5 12t8.5 30h81z" />
    <glyph glyph-name="Ograve" unicode="&#xd2;" horiz-adv-x="791" 
d="M396 685q72 0 135 -25.5t111.5 -72t76 -110.5t27.5 -142t-27.5 -142t-76 -110.5t-111.5 -72t-135 -25.5t-135.5 25.5t-112 72t-76 110.5t-27.5 142t27.5 142t76 110.5t112 72t135.5 25.5zM396 554q-60 0 -107.5 -29t-74.5 -78t-27 -112q0 -62 27 -111.5t74.5 -78
t107.5 -28.5t107 28.5t74 78t27 111.5q0 63 -27 112t-74 78t-107 29zM289 880l107 -75l-6 -67l-107 75z" />
    <glyph glyph-name="Oacute" unicode="&#xd3;" horiz-adv-x="791" 
d="M396 685q72 0 135 -25.5t111.5 -72t76 -110.5t27.5 -142t-27.5 -142t-76 -110.5t-111.5 -72t-135 -25.5t-135.5 25.5t-112 72t-76 110.5t-27.5 142t27.5 142t76 110.5t112 72t135.5 25.5zM396 554q-60 0 -107.5 -29t-74.5 -78t-27 -112q0 -62 27 -111.5t74.5 -78
t107.5 -28.5t107 28.5t74 78t27 111.5q0 63 -27 112t-74 78t-107 29zM567 880l-137 -142h-102l105 142h134z" />
    <glyph glyph-name="Ocircumflex" unicode="&#xd4;" horiz-adv-x="791" 
d="M396 685q72 0 135 -25.5t111.5 -72t76 -110.5t27.5 -142t-27.5 -142t-76 -110.5t-111.5 -72t-135 -25.5t-135.5 25.5t-112 72t-76 110.5t-27.5 142t27.5 142t76 110.5t112 72t135.5 25.5zM396 554q-60 0 -107.5 -29t-74.5 -78t-27 -112q0 -62 27 -111.5t74.5 -78
t107.5 -28.5t107 28.5t74 78t27 111.5q0 63 -27 112t-74 78t-107 29zM433 880l130 -144h-107l-60 68l-60 -68h-107l130 144h74z" />
    <glyph glyph-name="Otilde" unicode="&#xd5;" horiz-adv-x="791" 
d="M396 685q72 0 135 -25.5t111.5 -72t76 -110.5t27.5 -142t-27.5 -142t-76 -110.5t-111.5 -72t-135 -25.5t-135.5 25.5t-112 72t-76 110.5t-27.5 142t27.5 142t76 110.5t112 72t135.5 25.5zM396 554q-60 0 -107.5 -29t-74.5 -78t-27 -112q0 -62 27 -111.5t74.5 -78
t107.5 -28.5t107 28.5t74 78t27 111.5q0 63 -27 112t-74 78t-107 29zM578 860q0 -57 -33.5 -89t-82.5 -32q-35 0 -55 11.5t-34.5 23t-31.5 11.5t-26 -12t-9 -30h-81q0 57 33.5 89t82.5 32q35 0 55 -11.5t34.5 -23t32.5 -11.5q17 0 25.5 12t8.5 30h81z" />
    <glyph glyph-name="Odieresis" unicode="&#xd6;" horiz-adv-x="791" 
d="M396 685q72 0 135 -25.5t111.5 -72t76 -110.5t27.5 -142t-27.5 -142t-76 -110.5t-111.5 -72t-135 -25.5t-135.5 25.5t-112 72t-76 110.5t-27.5 142t27.5 142t76 110.5t112 72t135.5 25.5zM396 554q-60 0 -107.5 -29t-74.5 -78t-27 -112q0 -62 27 -111.5t74.5 -78
t107.5 -28.5t107 28.5t74 78t27 111.5q0 63 -27 112t-74 78t-107 29zM501 887q28 0 49 -20.5t21 -48.5q0 -29 -21 -49.5t-49 -20.5q-29 0 -49 20.5t-20 49.5q0 28 20 48.5t49 20.5zM291 887q28 0 49 -20.5t21 -48.5q0 -29 -21 -49.5t-49 -20.5q-29 0 -49 20.5t-20 49.5
q0 28 20 48.5t49 20.5z" />
    <glyph glyph-name="multiply" unicode="&#xd7;" horiz-adv-x="550" 
d="M168 494l95 -96l95 96l85 -85l-95 -96l95 -95l-85 -85l-95 95l-96 -96l-85 85l96 96l-95 96z" />
    <glyph glyph-name="Oslash" unicode="&#xd8;" horiz-adv-x="791" 
d="M396 685q54 0 104 -15t92 -42l48 57l67 -50l-51 -61q42 -45 66 -106t24 -133q0 -78 -27.5 -142t-76 -110.5t-111.5 -72t-135 -25.5q-52 0 -100 13.5t-89 38.5l-43 -52l-64 50l43 52q-45 46 -71.5 109t-26.5 139q0 78 27.5 142t76 110.5t112 72t135.5 25.5zM396 554
q-60 0 -107.5 -29t-74.5 -78t-27 -112q0 -41 12 -76.5t34 -63.5l272 328q-49 31 -109 31zM604 335q0 37 -10 70.5t-29 60.5l-270 -324q46 -25 101 -25q60 0 107 28.5t74 78t27 111.5z" />
    <glyph glyph-name="Ugrave" unicode="&#xd9;" horiz-adv-x="759" 
d="M669 672v-407q0 -87 -38.5 -149.5t-104 -96t-146.5 -33.5t-147 33.5t-104.5 96t-38.5 149.5v407h139v-399q0 -77 41.5 -115.5t109.5 -37.5q67 0 109 38t42 115v399h138zM273 880l107 -75l-6 -67l-107 75z" />
    <glyph glyph-name="Uacute" unicode="&#xda;" horiz-adv-x="759" 
d="M669 672v-407q0 -87 -38.5 -149.5t-104 -96t-146.5 -33.5t-147 33.5t-104.5 96t-38.5 149.5v407h139v-399q0 -77 41.5 -115.5t109.5 -37.5q67 0 109 38t42 115v399h138zM551 880l-137 -142h-102l105 142h134z" />
    <glyph glyph-name="Ucircumflex" unicode="&#xdb;" horiz-adv-x="759" 
d="M669 672v-407q0 -87 -38.5 -149.5t-104 -96t-146.5 -33.5t-147 33.5t-104.5 96t-38.5 149.5v407h139v-399q0 -77 41.5 -115.5t109.5 -37.5q67 0 109 38t42 115v399h138zM417 880l130 -144h-107l-60 68l-60 -68h-107l130 144h74z" />
    <glyph glyph-name="Udieresis" unicode="&#xdc;" horiz-adv-x="759" 
d="M669 672v-407q0 -87 -38.5 -149.5t-104 -96t-146.5 -33.5t-147 33.5t-104.5 96t-38.5 149.5v407h139v-399q0 -77 41.5 -115.5t109.5 -37.5q67 0 109 38t42 115v399h138zM485 887q28 0 49 -20.5t21 -48.5q0 -29 -21 -49.5t-49 -20.5q-29 0 -49 20.5t-20 49.5q0 28 20 48.5
t49 20.5zM275 887q28 0 49 -20.5t21 -48.5q0 -29 -21 -49.5t-49 -20.5q-29 0 -49 20.5t-20 49.5q0 28 20 48.5t49 20.5z" />
    <glyph glyph-name="Yacute" unicode="&#xdd;" horiz-adv-x="681" 
d="M671 670l-259 -417v-253h-142v246l-260 424h163l167 -282l168 282h163zM512 880l-137 -142h-102l105 142h134z" />
    <glyph glyph-name="Thorn" unicode="&#xde;" horiz-adv-x="659" 
d="M227 670v-114h166q58 0 109.5 -27.5t84 -75.5t32.5 -110q0 -63 -30.5 -112.5t-85 -78t-125.5 -28.5q-44 0 -80 6.5t-71 17.5v-148h-127v670h127zM353 436h-126v-167q30 -17 70 -23.5t71 -6.5q60 0 89.5 28t29.5 76q0 45 -39 69t-95 24z" />
    <glyph glyph-name="germandbls" unicode="&#xdf;" horiz-adv-x="691" 
d="M277 725q56 0 108 -23.5t85.5 -67.5t33.5 -107q0 -33 -13 -55.5t-30 -38.5t-30 -31.5t-13 -33.5q0 -25 24 -36t53 -24l54 -25q51 -23 81.5 -56.5t30.5 -81.5q0 -49 -28.5 -84.5t-73 -54t-93.5 -18.5q-53 0 -96.5 14t-73.5 32v110q32 -19 76 -33.5t93 -14.5q33 0 56 11.5
t23 36.5q0 15 -14.5 27.5t-33 21.5t-31.5 13l-68 25q-39 14 -68 41t-29 79q0 30 10.5 53t25 42.5t25.5 38.5t11 41q0 42 -27.5 67t-63.5 24q-38 -1 -64.5 -24t-26.5 -83v-510h-127v529q0 67 31.5 110t80.5 64.5t102 21.5z" />
    <glyph glyph-name="agrave" unicode="&#xe0;" horiz-adv-x="636" 
d="M278 518q41 0 83 -19t70 -51v57h127v-505h-127v85q-22 -41 -64 -70.5t-98 -29.5q-61 0 -112.5 31t-82.5 90t-31 143t31.5 144t85 92.5t118.5 32.5zM304 394q-40 0 -68.5 -20.5t-44.5 -53.5t-16 -71q0 -57 34.5 -97t91.5 -40q34 0 63.5 18t48 50.5t18.5 78.5v72
q-27 29 -58.5 46t-68.5 17zM210 715l107 -75l-6 -67l-107 75z" />
    <glyph glyph-name="aacute" unicode="&#xe1;" horiz-adv-x="636" 
d="M278 518q41 0 83 -19t70 -51v57h127v-505h-127v85q-22 -41 -64 -70.5t-98 -29.5q-61 0 -112.5 31t-82.5 90t-31 143t31.5 144t85 92.5t118.5 32.5zM304 394q-40 0 -68.5 -20.5t-44.5 -53.5t-16 -71q0 -57 34.5 -97t91.5 -40q34 0 63.5 18t48 50.5t18.5 78.5v72
q-27 29 -58.5 46t-68.5 17zM488 715l-137 -142h-102l105 142h134z" />
    <glyph glyph-name="acircumflex" unicode="&#xe2;" horiz-adv-x="636" 
d="M278 518q41 0 83 -19t70 -51v57h127v-505h-127v85q-22 -41 -64 -70.5t-98 -29.5q-61 0 -112.5 31t-82.5 90t-31 143t31.5 144t85 92.5t118.5 32.5zM304 394q-40 0 -68.5 -20.5t-44.5 -53.5t-16 -71q0 -57 34.5 -97t91.5 -40q34 0 63.5 18t48 50.5t18.5 78.5v72
q-27 29 -58.5 46t-68.5 17zM354 715l130 -144h-107l-60 68l-60 -68h-107l130 144h74z" />
    <glyph glyph-name="atilde" unicode="&#xe3;" horiz-adv-x="636" 
d="M278 518q41 0 83 -19t70 -51v57h127v-505h-127v85q-22 -41 -64 -70.5t-98 -29.5q-61 0 -112.5 31t-82.5 90t-31 143t31.5 144t85 92.5t118.5 32.5zM304 394q-40 0 -68.5 -20.5t-44.5 -53.5t-16 -71q0 -57 34.5 -97t91.5 -40q34 0 63.5 18t48 50.5t18.5 78.5v72
q-27 29 -58.5 46t-68.5 17zM500 695q0 -57 -33.5 -89t-82.5 -32q-35 0 -55 11.5t-34.5 23t-31.5 11.5t-26 -12t-9 -30h-81q0 57 33.5 89t82.5 32q35 0 55 -11.5t34.5 -23t32.5 -11.5q17 0 25.5 12t8.5 30h81z" />
    <glyph glyph-name="adieresis" unicode="&#xe4;" horiz-adv-x="636" 
d="M278 518q41 0 83 -19t70 -51v57h127v-505h-127v85q-22 -41 -64 -70.5t-98 -29.5q-61 0 -112.5 31t-82.5 90t-31 143t31.5 144t85 92.5t118.5 32.5zM304 394q-40 0 -68.5 -20.5t-44.5 -53.5t-16 -71q0 -57 34.5 -97t91.5 -40q34 0 63.5 18t48 50.5t18.5 78.5v72
q-27 29 -58.5 46t-68.5 17zM423 722q28 0 49 -20.5t21 -48.5q0 -29 -21 -49.5t-49 -20.5q-29 0 -49 20.5t-20 49.5q0 28 20 48.5t49 20.5zM213 722q28 0 49 -20.5t21 -48.5q0 -29 -21 -49.5t-49 -20.5q-29 0 -49 20.5t-20 49.5q0 28 20 48.5t49 20.5z" />
    <glyph glyph-name="aring" unicode="&#xe5;" horiz-adv-x="636" 
d="M278 518q41 0 83 -19t70 -51v57h127v-505h-127v85q-22 -41 -64 -70.5t-98 -29.5q-61 0 -112.5 31t-82.5 90t-31 143t31.5 144t85 92.5t118.5 32.5zM304 394q-40 0 -68.5 -20.5t-44.5 -53.5t-16 -71q0 -57 34.5 -97t91.5 -40q34 0 63.5 18t48 50.5t18.5 78.5v72
q-27 29 -58.5 46t-68.5 17zM317 729q38 0 63.5 -25.5t25.5 -61.5t-25.5 -61.5t-63.5 -25.5t-64 25.5t-26 61.5t26 61.5t64 25.5zM317 681q-16 0 -28 -11.5t-12 -27.5t12 -27.5t28 -11.5t27.5 11.5t11.5 27.5t-11.5 27.5t-27.5 11.5z" />
    <glyph glyph-name="ae" unicode="&#xe6;" horiz-adv-x="1004" 
d="M728 518q74 0 127.5 -32t82 -88.5t28.5 -130.5v-54h-366q10 -51 50 -82t98 -31q55 0 100 22t72 45l-1 -118q-24 -21 -71.5 -42.5t-104.5 -21.5q-75 0 -136.5 34t-98 93t-36.5 135q0 74 33 135t91 98.5t132 37.5zM725 407q-47 0 -79 -29t-44 -78h242q-4 54 -40 80.5
t-79 26.5zM278 518q41 0 83 -19t70 -51v57h127v-505h-127v85q-22 -41 -64 -70.5t-98 -29.5q-61 0 -112.5 31t-82.5 90t-31 143t31.5 144t85 92.5t118.5 32.5zM304 394q-40 0 -68.5 -20.5t-44.5 -53.5t-16 -71q0 -57 34.5 -97t91.5 -40q34 0 63.5 18t48 50.5t18.5 78.5v72
q-27 29 -58.5 46t-68.5 17z" />
    <glyph glyph-name="ccedilla" unicode="&#xe7;" horiz-adv-x="492" 
d="M308 518q56 0 92 -18t57 -35v-117q-26 19 -58.5 32t-79.5 13q-38 0 -70.5 -19t-51.5 -51t-19 -73q0 -62 40 -102t101 -40q47 0 79.5 12.5t58.5 31.5v-116q-21 -18 -57 -34.5t-92 -16.5q-77 0 -136.5 36.5t-94 97t-34.5 131.5q0 53 19.5 101t55.5 85.5t84.5 59.5t105.5 22
zM322 2l-4 -60q40 3 66.5 -20.5t26.5 -60.5q0 -45 -31.5 -73t-82.5 -28q-15 0 -39.5 6t-39.5 19l7 65q15 -9 32.5 -16.5t39.5 -7.5q13 0 24 7.5t11 21.5q0 12 -9.5 19t-24.5 7q-8 0 -15.5 -2t-17.5 -7l-20 12l13 118h64z" />
    <glyph glyph-name="egrave" unicode="&#xe8;" 
d="M299 518q74 0 127.5 -32t82 -88.5t28.5 -130.5v-54h-366q10 -51 50 -82t98 -31q55 0 100 22t72 45l-1 -118q-24 -21 -71.5 -42.5t-104.5 -21.5q-75 0 -136.5 34t-98 93t-36.5 135q0 74 33 135t91 98.5t132 37.5zM296 407q-47 0 -79 -29t-44 -78h242q-4 54 -40 80.5
t-79 26.5zM197 715l107 -75l-6 -67l-107 75z" />
    <glyph glyph-name="eacute" unicode="&#xe9;" 
d="M299 518q74 0 127.5 -32t82 -88.5t28.5 -130.5v-54h-366q10 -51 50 -82t98 -31q55 0 100 22t72 45l-1 -118q-24 -21 -71.5 -42.5t-104.5 -21.5q-75 0 -136.5 34t-98 93t-36.5 135q0 74 33 135t91 98.5t132 37.5zM296 407q-47 0 -79 -29t-44 -78h242q-4 54 -40 80.5
t-79 26.5zM475 715l-137 -142h-102l105 142h134z" />
    <glyph glyph-name="ecircumflex" unicode="&#xea;" 
d="M299 518q74 0 127.5 -32t82 -88.5t28.5 -130.5v-54h-366q10 -51 50 -82t98 -31q55 0 100 22t72 45l-1 -118q-24 -21 -71.5 -42.5t-104.5 -21.5q-75 0 -136.5 34t-98 93t-36.5 135q0 74 33 135t91 98.5t132 37.5zM296 407q-47 0 -79 -29t-44 -78h242q-4 54 -40 80.5
t-79 26.5zM341 715l130 -144h-107l-60 68l-60 -68h-107l130 144h74z" />
    <glyph glyph-name="edieresis" unicode="&#xeb;" 
d="M299 518q74 0 127.5 -32t82 -88.5t28.5 -130.5v-54h-366q10 -51 50 -82t98 -31q55 0 100 22t72 45l-1 -118q-24 -21 -71.5 -42.5t-104.5 -21.5q-75 0 -136.5 34t-98 93t-36.5 135q0 74 33 135t91 98.5t132 37.5zM296 407q-47 0 -79 -29t-44 -78h242q-4 54 -40 80.5
t-79 26.5zM409 722q28 0 49 -20.5t21 -48.5q0 -29 -21 -49.5t-49 -20.5q-29 0 -49 20.5t-20 49.5q0 28 20 48.5t49 20.5zM199 722q28 0 49 -20.5t21 -48.5q0 -29 -21 -49.5t-49 -20.5q-29 0 -49 20.5t-20 49.5q0 28 20 48.5t49 20.5z" />
    <glyph glyph-name="igrave" unicode="&#xec;" horiz-adv-x="338" 
d="M261 505v-505h-127v397h-81v108h208zM77 715l107 -75l-6 -67l-107 75z" />
    <glyph glyph-name="iacute" unicode="&#xed;" horiz-adv-x="338" 
d="M261 505v-505h-127v397h-81v108h208zM355 715l-137 -142h-102l105 142h134z" />
    <glyph glyph-name="icircumflex" unicode="&#xee;" horiz-adv-x="307" 
d="M194 715l130 -144h-107l-60 68l-60 -68h-107l130 144h74zM287 505v-505h-127v397h-81v108h208z" />
    <glyph glyph-name="idieresis" unicode="&#xef;" horiz-adv-x="338" 
d="M261 505v-505h-127v397h-81v108h208zM290 722q28 0 49 -20.5t21 -48.5q0 -29 -21 -49.5t-49 -20.5q-29 0 -49 20.5t-20 49.5q0 28 20 48.5t49 20.5zM80 722q28 0 49 -20.5t21 -48.5q0 -29 -21 -49.5t-49 -20.5q-29 0 -49 20.5t-20 49.5q0 28 20 48.5t49 20.5z" />
    <glyph glyph-name="eth" unicode="&#xf0;" horiz-adv-x="613" 
d="M328 718q42 -33 77 -67l89 44l32 -62l-72 -35q56 -69 86 -147t30 -167q0 -90 -35 -157.5t-94.5 -104.5t-132.5 -37q-74 0 -134 35t-95.5 95t-35.5 135q0 74 35 132t94.5 90.5t130.5 32.5q36 0 73.5 -19t70.5 -56q-10 31 -32.5 63t-49.5 61l-78 -38l-32 60l58 29
q-15 12 -28.5 22.5t-24.5 19.5zM313 395q-36 0 -67 -17t-49.5 -49t-18.5 -78t18.5 -78t49.5 -48.5t67 -16.5t67 16.5t50 48.5t19 78t-19 78t-50 49t-67 17z" />
    <glyph glyph-name="ntilde" unicode="&#xf1;" horiz-adv-x="607" 
d="M205 505v-72q23 31 62.5 58t90.5 27q77 0 129 -52t52 -156v-310h-127l-1 293q0 51 -24.5 76t-67.5 25q-34 0 -63.5 -22t-50.5 -52v-320h-127v505h127zM502 697q0 -57 -33.5 -89t-82.5 -32q-35 0 -55 11.5t-34.5 23t-31.5 11.5t-26 -12t-9 -30h-81q0 57 33.5 89t82.5 32
q35 0 55 -11.5t34.5 -23t32.5 -11.5q17 0 25.5 12t8.5 30h81z" />
    <glyph glyph-name="ograve" unicode="&#xf2;" horiz-adv-x="626" 
d="M313 518q74 0 135 -35.5t98.5 -96t37.5 -135.5t-37.5 -135t-98.5 -95.5t-135 -35.5q-73 0 -134.5 35.5t-98.5 95.5t-37 135t37 135.5t98.5 96t134.5 35.5zM313 395q-36 0 -67 -17t-49.5 -49t-18.5 -78t18.5 -78t49.5 -48.5t67 -16.5t67 16.5t50 48.5t19 78t-19 78t-50 49
t-67 17zM206 715l107 -75l-6 -67l-107 75z" />
    <glyph glyph-name="oacute" unicode="&#xf3;" horiz-adv-x="626" 
d="M313 518q74 0 135 -35.5t98.5 -96t37.5 -135.5t-37.5 -135t-98.5 -95.5t-135 -35.5q-73 0 -134.5 35.5t-98.5 95.5t-37 135t37 135.5t98.5 96t134.5 35.5zM313 395q-36 0 -67 -17t-49.5 -49t-18.5 -78t18.5 -78t49.5 -48.5t67 -16.5t67 16.5t50 48.5t19 78t-19 78t-50 49
t-67 17zM484 715l-137 -142h-102l105 142h134z" />
    <glyph glyph-name="ocircumflex" unicode="&#xf4;" horiz-adv-x="626" 
d="M313 518q74 0 135 -35.5t98.5 -96t37.5 -135.5t-37.5 -135t-98.5 -95.5t-135 -35.5q-73 0 -134.5 35.5t-98.5 95.5t-37 135t37 135.5t98.5 96t134.5 35.5zM313 395q-36 0 -67 -17t-49.5 -49t-18.5 -78t18.5 -78t49.5 -48.5t67 -16.5t67 16.5t50 48.5t19 78t-19 78t-50 49
t-67 17zM350 715l130 -144h-107l-60 68l-60 -68h-107l130 144h74z" />
    <glyph glyph-name="otilde" unicode="&#xf5;" horiz-adv-x="626" 
d="M313 518q74 0 135 -35.5t98.5 -96t37.5 -135.5t-37.5 -135t-98.5 -95.5t-135 -35.5q-73 0 -134.5 35.5t-98.5 95.5t-37 135t37 135.5t98.5 96t134.5 35.5zM313 395q-36 0 -67 -17t-49.5 -49t-18.5 -78t18.5 -78t49.5 -48.5t67 -16.5t67 16.5t50 48.5t19 78t-19 78t-50 49
t-67 17zM496 695q0 -57 -33.5 -89t-82.5 -32q-35 0 -55 11.5t-34.5 23t-31.5 11.5t-26 -12t-9 -30h-81q0 57 33.5 89t82.5 32q35 0 55 -11.5t34.5 -23t32.5 -11.5q17 0 25.5 12t8.5 30h81z" />
    <glyph glyph-name="odieresis" unicode="&#xf6;" horiz-adv-x="626" 
d="M313 518q74 0 135 -35.5t98.5 -96t37.5 -135.5t-37.5 -135t-98.5 -95.5t-135 -35.5q-73 0 -134.5 35.5t-98.5 95.5t-37 135t37 135.5t98.5 96t134.5 35.5zM313 395q-36 0 -67 -17t-49.5 -49t-18.5 -78t18.5 -78t49.5 -48.5t67 -16.5t67 16.5t50 48.5t19 78t-19 78t-50 49
t-67 17zM419 722q28 0 49 -20.5t21 -48.5q0 -29 -21 -49.5t-49 -20.5q-29 0 -49 20.5t-20 49.5q0 28 20 48.5t49 20.5zM209 722q28 0 49 -20.5t21 -48.5q0 -29 -21 -49.5t-49 -20.5q-29 0 -49 20.5t-20 49.5q0 28 20 48.5t49 20.5z" />
    <glyph glyph-name="divide" unicode="&#xf7;" horiz-adv-x="551" 
d="M276 578q30 0 52 -21.5t22 -52.5q0 -30 -22 -52t-52 -22q-31 0 -52.5 22t-21.5 52q0 31 21.5 52.5t52.5 21.5zM471 373v-120h-391v120h391zM276 194q30 0 52 -21.5t22 -52.5q0 -30 -22 -52t-52 -22q-31 0 -52.5 22t-21.5 52q0 31 21.5 52.5t52.5 21.5z" />
    <glyph glyph-name="oslash" unicode="&#xf8;" horiz-adv-x="606" 
d="M313 518q41 0 78.5 -11.5t69.5 -32.5l42 45l62 -50l-44 -47q29 -35 46 -78.5t17 -92.5q0 -75 -37.5 -135t-98.5 -95.5t-135 -35.5q-43 0 -83 13t-73 36l-51 -54l-59 50l53 57q-27 33 -42 75t-15 89q0 75 37 135.5t98.5 96t134.5 35.5zM313 395q-36 0 -67 -17t-49.5 -49
t-19.5 -78q1 -37 14 -67l183 197q-28 14 -61 14zM449 251q0 42 -18 75l-188 -200q31 -18 70 -18q36 0 67 16.5t50 48.5t19 78z" />
    <glyph glyph-name="ugrave" unicode="&#xf9;" horiz-adv-x="591" 
d="M524 505v-301q0 -67 -30 -115.5t-81.5 -74.5t-116.5 -26q-66 0 -117.5 26t-81 74.5t-29.5 115.5v301h128l1 -278q0 -59 27 -88t72 -29q44 0 71.5 29t27.5 88v278h129zM195 715l107 -75l-6 -67l-107 75z" />
    <glyph glyph-name="uacute" unicode="&#xfa;" horiz-adv-x="591" 
d="M524 505v-301q0 -67 -30 -115.5t-81.5 -74.5t-116.5 -26q-66 0 -117.5 26t-81 74.5t-29.5 115.5v301h128l1 -278q0 -59 27 -88t72 -29q44 0 71.5 29t27.5 88v278h129zM473 715l-137 -142h-102l105 142h134z" />
    <glyph glyph-name="ucircumflex" unicode="&#xfb;" horiz-adv-x="591" 
d="M524 505v-301q0 -67 -30 -115.5t-81.5 -74.5t-116.5 -26q-66 0 -117.5 26t-81 74.5t-29.5 115.5v301h128l1 -278q0 -59 27 -88t72 -29q44 0 71.5 29t27.5 88v278h129zM339 715l130 -144h-107l-60 68l-60 -68h-107l130 144h74z" />
    <glyph glyph-name="udieresis" unicode="&#xfc;" horiz-adv-x="591" 
d="M524 505v-301q0 -67 -30 -115.5t-81.5 -74.5t-116.5 -26q-66 0 -117.5 26t-81 74.5t-29.5 115.5v301h128l1 -278q0 -59 27 -88t72 -29q44 0 71.5 29t27.5 88v278h129zM408 722q28 0 49 -20.5t21 -48.5q0 -29 -21 -49.5t-49 -20.5q-29 0 -49 20.5t-20 49.5q0 28 20 48.5
t49 20.5zM198 722q28 0 49 -20.5t21 -48.5q0 -29 -21 -49.5t-49 -20.5q-29 0 -49 20.5t-20 49.5q0 28 20 48.5t49 20.5z" />
    <glyph glyph-name="yacute" unicode="&#xfd;" horiz-adv-x="597" 
d="M158 505l144 -322l140 322h145l-367 -745h-144l152 277l-218 468h148zM467 715l-137 -142h-102l105 142h134z" />
    <glyph glyph-name="thorn" unicode="&#xfe;" horiz-adv-x="636" 
d="M78 720h127v-300q22 41 64 69.5t98 28.5q60 0 111.5 -30.5t83 -89t31.5 -142.5t-31.5 -144t-85 -92t-118.5 -32q-42 0 -83.5 19t-69.5 50v-282h-127v945zM335 390q-34 0 -64 -17t-48.5 -49t-17.5 -77v-73q27 -28 58.5 -45t68.5 -17q39 0 68 20.5t45 53t16 70.5
q0 57 -34.5 95.5t-91.5 38.5z" />
    <glyph glyph-name="ydieresis" unicode="&#xff;" horiz-adv-x="597" 
d="M158 505l144 -322l140 322h145l-367 -745h-144l152 277l-218 468h148zM401 722q28 0 49 -20.5t21 -48.5q0 -29 -21 -49.5t-49 -20.5q-29 0 -49 20.5t-20 49.5q0 28 20 48.5t49 20.5zM191 722q28 0 49 -20.5t21 -48.5q0 -29 -21 -49.5t-49 -20.5q-29 0 -49 20.5t-20 49.5
q0 28 20 48.5t49 20.5z" />
    <glyph glyph-name="Amacron" unicode="&#x100;" horiz-adv-x="713" 
d="M391 675l312 -675h-163l-51 125h-265l-51 -125h-163l312 675h69zM357 448l-84 -205h168zM536 879v-95h-360v95h360z" />
    <glyph glyph-name="amacron" unicode="&#x101;" horiz-adv-x="636" 
d="M278 518q41 0 83 -19t70 -51v57h127v-505h-127v85q-22 -41 -64 -70.5t-98 -29.5q-61 0 -112.5 31t-82.5 90t-31 143t31.5 144t85 92.5t118.5 32.5zM304 394q-40 0 -68.5 -20.5t-44.5 -53.5t-16 -71q0 -57 34.5 -97t91.5 -40q34 0 63.5 18t48 50.5t18.5 78.5v72
q-27 29 -58.5 46t-68.5 17zM497 714v-95h-360v95h360z" />
    <glyph glyph-name="Abreve" unicode="&#x102;" horiz-adv-x="713" 
d="M391 675l312 -675h-163l-51 125h-265l-51 -125h-163l312 675h69zM357 448l-84 -205h168zM518 880q-2 -69 -48 -109.5t-114 -40.5q-67 0 -113.5 40.5t-48.5 109.5h87q5 -28 24 -45t51 -17t51.5 18.5t23.5 43.5h87z" />
    <glyph glyph-name="abreve" unicode="&#x103;" horiz-adv-x="636" 
d="M278 518q41 0 83 -19t70 -51v57h127v-505h-127v85q-22 -41 -64 -70.5t-98 -29.5q-61 0 -112.5 31t-82.5 90t-31 143t31.5 144t85 92.5t118.5 32.5zM304 394q-40 0 -68.5 -20.5t-44.5 -53.5t-16 -71q0 -57 34.5 -97t91.5 -40q34 0 63.5 18t48 50.5t18.5 78.5v72
q-27 29 -58.5 46t-68.5 17zM479 715q-2 -69 -48 -109.5t-114 -40.5q-67 0 -113.5 40.5t-48.5 109.5h87q5 -28 24 -45t51 -17t51.5 18.5t23.5 43.5h87z" />
    <glyph glyph-name="Aogonek" unicode="&#x104;" horiz-adv-x="713" 
d="M391 675l312 -675h-163l-51 125h-265l-51 -125h-163l312 675h69zM357 448l-84 -205h168zM548 1h110q-26 -8 -50.5 -22t-40 -31t-15.5 -33q0 -19 11.5 -31t32.5 -12q17 0 30 5t24 13v-91q-10 -6 -34.5 -15t-59.5 -9q-30 0 -58 11t-46 33t-18 55q0 35 18.5 61t45 42.5
t50.5 23.5z" />
    <glyph glyph-name="aogonek" unicode="&#x105;" horiz-adv-x="636" 
d="M278 518q41 0 83 -19t70 -51v57h127v-505h-127v85q-22 -41 -64 -70.5t-98 -29.5q-61 0 -112.5 31t-82.5 90t-31 143t31.5 144t85 92.5t118.5 32.5zM304 394q-40 0 -68.5 -20.5t-44.5 -53.5t-16 -71q0 -57 34.5 -97t91.5 -40q34 0 63.5 18t48 50.5t18.5 78.5v72
q-27 29 -58.5 46t-68.5 17zM434 1h110q-26 -8 -50.5 -22t-40 -31t-15.5 -33q0 -19 11.5 -31t32.5 -12q17 0 30 5t24 13v-91q-10 -6 -34.5 -15t-59.5 -9q-30 0 -58 11t-46 33t-18 55q0 35 18.5 61t45 42.5t50.5 23.5z" />
    <glyph glyph-name="Cacute" unicode="&#x106;" horiz-adv-x="643" 
d="M399 685q63 0 109 -17.5t80 -47.5v-140q-24 18 -50 35t-58.5 28t-76.5 11q-60 0 -109 -29t-78 -78t-29 -112q0 -62 29 -111.5t78 -78t109 -28.5q67 0 112.5 20.5t82.5 50.5v-135q-34 -31 -85 -49.5t-114 -18.5q-72 0 -136 25.5t-113 72t-77 110.5t-28 142t28 142
t77 110.5t113 72t136 25.5zM571 880l-137 -142h-102l105 142h134z" />
    <glyph glyph-name="cacute" unicode="&#x107;" horiz-adv-x="492" 
d="M308 518q56 0 92 -18t57 -35v-117q-26 19 -58.5 32t-79.5 13q-38 0 -70.5 -19t-51.5 -51t-19 -73q0 -62 40 -102t101 -40q47 0 79.5 12.5t58.5 31.5v-116q-21 -18 -57 -34.5t-92 -16.5q-77 0 -136.5 36.5t-94 97t-34.5 131.5q0 53 19.5 101t55.5 85.5t84.5 59.5t105.5 22
zM471 715l-137 -142h-102l105 142h134z" />
    <glyph glyph-name="Ccaron" unicode="&#x10c;" horiz-adv-x="643" 
d="M399 685q63 0 109 -17.5t80 -47.5v-140q-24 18 -50 35t-58.5 28t-76.5 11q-60 0 -109 -29t-78 -78t-29 -112q0 -62 29 -111.5t78 -78t109 -28.5q67 0 112.5 20.5t82.5 50.5v-135q-34 -31 -85 -49.5t-114 -18.5q-72 0 -136 25.5t-113 72t-77 110.5t-28 142t28 142
t77 110.5t113 72t136 25.5zM233 880h107l60 -68l60 68h107l-130 -144h-74z" />
    <glyph glyph-name="ccaron" unicode="&#x10d;" horiz-adv-x="492" 
d="M308 518q56 0 92 -18t57 -35v-117q-26 19 -58.5 32t-79.5 13q-38 0 -70.5 -19t-51.5 -51t-19 -73q0 -62 40 -102t101 -40q47 0 79.5 12.5t58.5 31.5v-116q-21 -18 -57 -34.5t-92 -16.5q-77 0 -136.5 36.5t-94 97t-34.5 131.5q0 53 19.5 101t55.5 85.5t84.5 59.5t105.5 22
zM133 715h107l60 -68l60 68h107l-130 -144h-74z" />
    <glyph glyph-name="Dcaron" unicode="&#x10e;" horiz-adv-x="760" 
d="M360 686q106 0 186 -43t124.5 -120t44.5 -181q0 -99 -42 -179.5t-120 -127.5t-186 -47q-69 0 -137.5 7t-129.5 19v646q62 10 127 18t133 8zM363 556q-30 0 -63 -3t-61 -8v-416q30 -6 62.5 -8.5t61.5 -2.5q66 0 113 28.5t72 78.5t25 112q0 64 -25 113t-72 77.5t-113 28.5z
M182 880h107l60 -68l60 68h107l-130 -144h-74z" />
    <glyph glyph-name="dcaron" unicode="&#x10f;" horiz-adv-x="743" 
d="M558 720v-720h-127v85q-22 -41 -64 -70.5t-98 -29.5q-61 0 -112.5 31t-82.5 90t-31 143t31.5 144t85 92.5t118.5 32.5q41 0 83 -19t70 -51v272h127zM616 718h114l-30 -188h-94zM304 393q-40 0 -68.5 -20.5t-44.5 -53t-16 -70.5q0 -57 34.5 -97t91.5 -40q34 0 63.5 18
t48 50.5t18.5 78.5v72q-27 29 -58.5 45.5t-68.5 16.5z" />
    <glyph glyph-name="Dcroat" unicode="&#x110;" horiz-adv-x="760" 
d="M360 686q106 0 186 -43t124.5 -120t44.5 -181q0 -99 -42 -179.5t-120 -127.5t-186 -47q-69 0 -137.5 7t-129.5 19v646q62 10 127 18t133 8zM363 556q-30 0 -63 -3t-61 -8v-416q30 -6 62.5 -8.5t61.5 -2.5q66 0 113 28.5t72 78.5t25 112q0 64 -25 113t-72 77.5t-113 28.5z
M320 397v-120h-301v120h301z" />
    <glyph glyph-name="dcroat" unicode="&#x111;" horiz-adv-x="629" 
d="M622 646v-95h-64v-551h-127v85q-22 -41 -64 -70.5t-98 -29.5q-61 0 -112.5 31t-82.5 90t-31 143t31.5 144t85 92.5t118.5 32.5q41 0 83 -19t70 -51v103h-123v95h123v74h127v-74h64zM304 393q-40 0 -68.5 -20.5t-44.5 -53t-16 -70.5q0 -57 34.5 -97t91.5 -40q34 0 63.5 18
t48 50.5t18.5 78.5v72q-27 29 -58.5 45.5t-68.5 16.5z" />
    <glyph glyph-name="Emacron" unicode="&#x112;" horiz-adv-x="654" 
d="M535 398v-113h-296v-162h335v-123h-474v670h474v-120h-335v-152h296zM517 879v-95h-360v95h360z" />
    <glyph glyph-name="emacron" unicode="&#x113;" 
d="M299 518q74 0 127.5 -32t82 -88.5t28.5 -130.5v-54h-366q10 -51 50 -82t98 -31q55 0 100 22t72 45l-1 -118q-24 -21 -71.5 -42.5t-104.5 -21.5q-75 0 -136.5 34t-98 93t-36.5 135q0 74 33 135t91 98.5t132 37.5zM296 407q-47 0 -79 -29t-44 -78h242q-4 54 -40 80.5
t-79 26.5zM484 714v-95h-360v95h360z" />
    <glyph glyph-name="Edotaccent" unicode="&#x116;" horiz-adv-x="654" 
d="M535 398v-113h-296v-162h335v-123h-474v670h474v-120h-335v-152h296zM337 880q28 0 49 -20.5t21 -48.5q0 -29 -21 -49.5t-49 -20.5q-29 0 -49 20.5t-20 49.5q0 28 20 48.5t49 20.5z" />
    <glyph glyph-name="edotaccent" unicode="&#x117;" 
d="M299 518q74 0 127.5 -32t82 -88.5t28.5 -130.5v-54h-366q10 -51 50 -82t98 -31q55 0 100 22t72 45l-1 -118q-24 -21 -71.5 -42.5t-104.5 -21.5q-75 0 -136.5 34t-98 93t-36.5 135q0 74 33 135t91 98.5t132 37.5zM296 407q-47 0 -79 -29t-44 -78h242q-4 54 -40 80.5
t-79 26.5zM304 715q28 0 49 -20.5t21 -48.5q0 -29 -21 -49.5t-49 -20.5q-29 0 -49 20.5t-20 49.5q0 28 20 48.5t49 20.5z" />
    <glyph glyph-name="Eogonek" unicode="&#x118;" horiz-adv-x="654" 
d="M535 398v-113h-296v-162h335v-123h-474v670h474v-120h-335v-152h296zM467 1h110q-26 -8 -50.5 -22t-40 -31t-15.5 -33q0 -19 11.5 -31t32.5 -12q17 0 30 5t24 13v-91q-10 -6 -34.5 -15t-59.5 -9q-30 0 -58 11t-46 33t-18 55q0 35 18.5 61t45 42.5t50.5 23.5z" />
    <glyph glyph-name="eogonek" unicode="&#x119;" 
d="M299 518q74 0 127.5 -32t82 -88.5t28.5 -130.5v-54h-366q10 -51 50 -82t98 -31q55 0 100 22t72 45l-1 -118q-24 -21 -71.5 -42.5t-104.5 -21.5q-75 0 -136.5 34t-98 93t-36.5 135q0 74 33 135t91 98.5t132 37.5zM296 407q-47 0 -79 -29t-44 -78h242q-4 54 -40 80.5
t-79 26.5zM312 1h110q-26 -8 -50.5 -22t-40 -31t-15.5 -33q0 -19 11.5 -31t32.5 -12q17 0 30 5t24 13v-91q-10 -6 -34.5 -15t-59.5 -9q-30 0 -58 11t-46 33t-18 55q0 35 18.5 61t45 42.5t50.5 23.5z" />
    <glyph glyph-name="Ecaron" unicode="&#x11a;" horiz-adv-x="654" 
d="M535 398v-113h-296v-162h335v-123h-474v670h474v-120h-335v-152h296zM170 880h107l60 -68l60 68h107l-130 -144h-74z" />
    <glyph glyph-name="ecaron" unicode="&#x11b;" 
d="M299 518q74 0 127.5 -32t82 -88.5t28.5 -130.5v-54h-366q10 -51 50 -82t98 -31q55 0 100 22t72 45l-1 -118q-24 -21 -71.5 -42.5t-104.5 -21.5q-75 0 -136.5 34t-98 93t-36.5 135q0 74 33 135t91 98.5t132 37.5zM296 407q-47 0 -79 -29t-44 -78h242q-4 54 -40 80.5
t-79 26.5zM137 715h107l60 -68l60 68h107l-130 -144h-74z" />
    <glyph glyph-name="uni0122" unicode="&#x122;" horiz-adv-x="703" 
d="M423 363h228v-273q-42 -44 -106.5 -74.5t-145.5 -30.5q-72 0 -136 25.5t-113 72t-77 110.5t-28 142t28 142t77 110.5t113 72t136 25.5q63 0 109 -17.5t80 -47.5v-140q-24 18 -50 35t-58.5 28t-76.5 11q-60 0 -109 -29t-78 -78t-29 -112q0 -62 29 -111.5t78 -78t109 -28.5
q46 0 74 11t44 24l1 111h-99v100zM380 -22q42 0 75 -25t33 -70q0 -36 -15.5 -60t-39 -36t-48.5 -12q-19 0 -33.5 5.5t-23.5 12.5v68q22 -16 50 -16q19 0 30.5 9.5t11.5 26.5q0 16 -12.5 25t-27.5 9v63z" />
    <glyph glyph-name="uni0123" unicode="&#x123;" horiz-adv-x="636" 
d="M278 518q41 0 83 -19t70 -51v57h127v-492q0 -86 -38 -145.5t-101 -91t-138 -31.5q-67 0 -110 20t-80 46v120q23 -14 48.5 -30t58 -27t75.5 -11q45 0 81 17t56.5 47.5t20.5 69.5v88q-22 -41 -64 -70.5t-98 -29.5q-61 0 -112.5 31t-82.5 90t-31 143t31.5 144t85 92.5
t118.5 32.5zM304 393q-40 0 -68.5 -20.5t-44.5 -53t-16 -70.5q0 -57 34.5 -96.5t91.5 -39.5q34 0 63.5 17.5t48 50t18.5 78.5v72q-27 29 -58.5 45.5t-68.5 16.5zM351 527q-42 0 -75 25t-33 70q0 36 15.5 60t39 36t48.5 12q19 0 33.5 -5.5t23.5 -12.5v-68q-22 16 -50 16
q-19 0 -30.5 -9.5t-11.5 -26.5q0 -16 12.5 -25t27.5 -9v-63z" />
    <glyph glyph-name="Imacron" unicode="&#x12a;" horiz-adv-x="555" 
d="M460 125v-125h-365v125h113v420h-113v125h365v-125h-113v-420h113zM460 879v-95h-360v95h360z" />
    <glyph glyph-name="imacron" unicode="&#x12b;" horiz-adv-x="438" 
d="M390 714v-95h-360v95h360zM313 505v-505h-127v397h-81v108h208z" />
    <glyph glyph-name="Iogonek" unicode="&#x12e;" horiz-adv-x="555" 
d="M460 125v-125h-365v125h113v420h-113v125h365v-125h-113v-420h113zM232 1h110q-26 -8 -50.5 -22t-40 -31t-15.5 -33q0 -19 11.5 -31t32.5 -12q17 0 30 5t24 13v-91q-10 -6 -34.5 -15t-59.5 -9q-30 0 -58 11t-46 33t-18 55q0 35 18.5 61t45 42.5t50.5 23.5z" />
    <glyph glyph-name="iogonek" unicode="&#x12f;" horiz-adv-x="337" 
d="M134 1h110q-26 -8 -50.5 -22t-40 -31t-15.5 -33q0 -19 11.5 -31t32.5 -12q17 0 30 5t24 13v-91q-10 -6 -34.5 -15t-59.5 -9q-30 0 -58 11t-46 33t-18 55q0 35 18.5 61t45 42.5t50.5 23.5zM181 768q36 0 62 -25.5t26 -60.5q0 -34 -26 -60t-62 -26t-61.5 26t-25.5 60
q0 35 25.5 60.5t61.5 25.5zM255 505v-505h-127v397h-81v108h208z" />
    <glyph glyph-name="dotlessi" unicode="&#x131;" horiz-adv-x="338" 
d="M261 505v-505h-127v397h-81v108h208z" />
    <glyph glyph-name="IJ" unicode="&#x132;" horiz-adv-x="904" 
d="M460 125v-125h-365v125h113v420h-113v125h365v-125h-113v-420h113zM810 672v-631q0 -85 -31.5 -143.5t-86.5 -95.5t-126 -57l-53 125q158 46 158 165v637h139z" />
    <glyph glyph-name="ij" unicode="&#x133;" horiz-adv-x="675" 
d="M184 768q36 0 62 -25.5t26 -60.5q0 -34 -26 -60t-62 -26t-61.5 26t-25.5 60q0 35 25.5 60.5t61.5 25.5zM258 505v-505h-127v397h-81v108h208zM518 768q35 0 61.5 -25.5t26.5 -60.5q0 -34 -26.5 -60t-61.5 -26q-37 0 -62.5 26t-25.5 60q0 35 25.5 60.5t62.5 25.5zM590 505
v-499q0 -103 -47.5 -166.5t-133.5 -94.5l-56 111q53 24 81.5 58t28.5 87v396h-81v108h208z" />
    <glyph glyph-name="uni0136" unicode="&#x136;" horiz-adv-x="715" 
d="M239 670v-300l255 300h176l-263 -293l293 -377h-182l-206 271l-73 -82v-189h-139v670h139zM328 -22q42 0 75 -25t33 -70q0 -36 -15.5 -60t-39 -36t-48.5 -12q-19 0 -33.5 5.5t-23.5 12.5v68q22 -16 50 -16q19 0 30.5 9.5t11.5 26.5q0 16 -12.5 25t-27.5 9v63z" />
    <glyph glyph-name="uni0137" unicode="&#x137;" horiz-adv-x="586" 
d="M205 720v-440l206 225h159l-218 -219l229 -286h-160l-153 201l-63 -63v-138h-127v720h127zM268 -22q42 0 75 -25t33 -70q0 -36 -15.5 -60t-39 -36t-48.5 -12q-19 0 -33.5 5.5t-23.5 12.5v68q22 -16 50 -16q19 0 30.5 9.5t11.5 26.5q0 16 -12.5 25t-27.5 9v63z" />
    <glyph glyph-name="Lacute" unicode="&#x139;" horiz-adv-x="637" 
d="M239 670v-545h335v-125h-474v670h139zM381 880l-137 -142h-102l105 142h134z" />
    <glyph glyph-name="lacute" unicode="&#x13a;" horiz-adv-x="282" 
d="M205 720v-720h-127v720h127zM338 930l-137 -142h-102l105 142h134z" />
    <glyph glyph-name="uni013B" unicode="&#x13b;" horiz-adv-x="637" 
d="M239 670v-545h335v-125h-474v670h139zM288 -22q42 0 75 -25t33 -70q0 -36 -15.5 -60t-39 -36t-48.5 -12q-19 0 -33.5 5.5t-23.5 12.5v68q22 -16 50 -16q19 0 30.5 9.5t11.5 26.5q0 16 -12.5 25t-27.5 9v63z" />
    <glyph glyph-name="uni013C" unicode="&#x13c;" horiz-adv-x="282" 
d="M205 720v-720h-127v720h127zM106 -22q42 0 75 -25t33 -70q0 -36 -15.5 -60t-39 -36t-48.5 -12q-19 0 -33.5 5.5t-23.5 12.5v68q22 -16 50 -16q19 0 30.5 9.5t11.5 26.5q0 16 -12.5 25t-27.5 9v63z" />
    <glyph glyph-name="Lcaron" unicode="&#x13d;" horiz-adv-x="590" 
d="M305 718h115l-30 -188h-95zM239 670v-545h335v-125h-474v670h139z" />
    <glyph glyph-name="lcaron" unicode="&#x13e;" horiz-adv-x="397" 
d="M205 720v-720h-127v720h127zM270 718h115l-30 -188h-95z" />
    <glyph glyph-name="Ldot" unicode="&#x13f;" horiz-adv-x="594" 
d="M239 670v-545h335v-125h-474v670h139zM419 482q33 0 56.5 -23.5t23.5 -56.5t-23.5 -56.5t-56.5 -23.5t-56.5 23.5t-23.5 56.5t23.5 56.5t56.5 23.5z" />
    <glyph glyph-name="ldot" unicode="&#x140;" horiz-adv-x="415" 
d="M205 720v-720h-127v720h127zM315 518q33 0 56.5 -23.5t23.5 -56.5t-23.5 -56.5t-56.5 -23.5t-56.5 23.5t-23.5 56.5t23.5 56.5t56.5 23.5z" />
    <glyph glyph-name="Lslash" unicode="&#x141;" horiz-adv-x="617" 
d="M326 532v-116l-87 -59v-232h335v-125h-474v264l-90 -61v116l90 61v290h139v-197z" />
    <glyph glyph-name="lslash" unicode="&#x142;" horiz-adv-x="321" 
d="M311 527v-116l-91 -63v-348h-127v260l-83 -57v116l83 57v344h127v-256z" />
    <glyph glyph-name="Nacute" unicode="&#x143;" horiz-adv-x="786" 
d="M686 670v-675h-50l-397 409v-404h-139v675h50l397 -415v410h139zM563 880l-137 -142h-102l105 142h134z" />
    <glyph glyph-name="nacute" unicode="&#x144;" horiz-adv-x="607" 
d="M205 505v-72q23 31 62.5 58t90.5 27q77 0 129 -52t52 -156v-310h-127l-1 293q0 51 -24.5 76t-67.5 25q-34 0 -63.5 -22t-50.5 -52v-320h-127v505h127zM491 717l-137 -142h-102l105 142h134z" />
    <glyph glyph-name="uni0145" unicode="&#x145;" horiz-adv-x="786" 
d="M686 670v-675h-50l-397 409v-404h-139v675h50l397 -415v410h139zM358 -22q42 0 75 -25t33 -70q0 -36 -15.5 -60t-39 -36t-48.5 -12q-19 0 -33.5 5.5t-23.5 12.5v68q22 -16 50 -16q19 0 30.5 9.5t11.5 26.5q0 16 -12.5 25t-27.5 9v63z" />
    <glyph glyph-name="uni0146" unicode="&#x146;" horiz-adv-x="607" 
d="M205 505v-72q23 31 62.5 58t90.5 27q77 0 129 -52t52 -156v-310h-127l-1 293q0 51 -24.5 76t-67.5 25q-34 0 -63.5 -22t-50.5 -52v-320h-127v505h127zM276 -22q42 0 75 -25t33 -70q0 -36 -15.5 -60t-39 -36t-48.5 -12q-19 0 -33.5 5.5t-23.5 12.5v68q22 -16 50 -16
q19 0 30.5 9.5t11.5 26.5q0 16 -12.5 25t-27.5 9v63z" />
    <glyph glyph-name="Ncaron" unicode="&#x147;" horiz-adv-x="786" 
d="M686 670v-675h-50l-397 409v-404h-139v675h50l397 -415v410h139zM225 880h107l60 -68l60 68h107l-130 -144h-74z" />
    <glyph glyph-name="ncaron" unicode="&#x148;" horiz-adv-x="607" 
d="M205 505v-72q23 31 62.5 58t90.5 27q77 0 129 -52t52 -156v-310h-127l-1 293q0 51 -24.5 76t-67.5 25q-34 0 -63.5 -22t-50.5 -52v-320h-127v505h127zM153 717h107l60 -68l60 68h107l-130 -144h-74z" />
    <glyph glyph-name="Eng" unicode="&#x14a;" horiz-adv-x="772" 
d="M677 672v-631q0 -85 -31.5 -143.5t-86.5 -95.5t-126 -57l-53 125q158 46 158 165v63l-296 301v-399h-142v675h51l387 -392v389h139z" />
    <glyph glyph-name="eng" unicode="&#x14b;" horiz-adv-x="609" 
d="M205 505v-72q23 31 62.5 58t90.5 27q77 0 129 -52t52 -156v-310v0v-27q0 -76 -47.5 -136.5t-133.5 -91.5l-56 111q53 24 81.5 59t28.5 88v133v0l-1 157q0 51 -24.5 76t-67.5 25q-34 0 -63.5 -22t-50.5 -52v-320h-127v505h127z" />
    <glyph glyph-name="Omacron" unicode="&#x14c;" horiz-adv-x="791" 
d="M396 685q72 0 135 -25.5t111.5 -72t76 -110.5t27.5 -142t-27.5 -142t-76 -110.5t-111.5 -72t-135 -25.5t-135.5 25.5t-112 72t-76 110.5t-27.5 142t27.5 142t76 110.5t112 72t135.5 25.5zM396 554q-60 0 -107.5 -29t-74.5 -78t-27 -112q0 -62 27 -111.5t74.5 -78
t107.5 -28.5t107 28.5t74 78t27 111.5q0 63 -27 112t-74 78t-107 29zM576 879v-95h-360v95h360z" />
    <glyph glyph-name="omacron" unicode="&#x14d;" horiz-adv-x="626" 
d="M313 518q74 0 135 -35.5t98.5 -96t37.5 -135.5t-37.5 -135t-98.5 -95.5t-135 -35.5q-73 0 -134.5 35.5t-98.5 95.5t-37 135t37 135.5t98.5 96t134.5 35.5zM313 395q-36 0 -67 -17t-49.5 -49t-18.5 -78t18.5 -78t49.5 -48.5t67 -16.5t67 16.5t50 48.5t19 78t-19 78t-50 49
t-67 17zM493 714v-95h-360v95h360z" />
    <glyph glyph-name="Ohungarumlaut" unicode="&#x150;" horiz-adv-x="791" 
d="M396 685q72 0 135 -25.5t111.5 -72t76 -110.5t27.5 -142t-27.5 -142t-76 -110.5t-111.5 -72t-135 -25.5t-135.5 25.5t-112 72t-76 110.5t-27.5 142t27.5 142t76 110.5t112 72t135.5 25.5zM396 554q-60 0 -107.5 -29t-74.5 -78t-27 -112q0 -62 27 -111.5t74.5 -78
t107.5 -28.5t107 28.5t74 78t27 111.5q0 63 -27 112t-74 78t-107 29zM642 880l-137 -142h-102l105 142h134zM464 880l-137 -142h-102l105 142h134z" />
    <glyph glyph-name="ohungarumlaut" unicode="&#x151;" horiz-adv-x="626" 
d="M313 518q74 0 135 -35.5t98.5 -96t37.5 -135.5t-37.5 -135t-98.5 -95.5t-135 -35.5q-73 0 -134.5 35.5t-98.5 95.5t-37 135t37 135.5t98.5 96t134.5 35.5zM313 395q-36 0 -67 -17t-49.5 -49t-18.5 -78t18.5 -78t49.5 -48.5t67 -16.5t67 16.5t50 48.5t19 78t-19 78t-50 49
t-67 17zM559 715l-137 -142h-102l105 142h134zM381 715l-137 -142h-102l105 142h134z" />
    <glyph glyph-name="OE" unicode="&#x152;" horiz-adv-x="1038" 
d="M919 398v-113h-296v-162h335v-123h-560q-72 0 -136 25t-112.5 70.5t-76.5 106.5t-28 133t28 133t76.5 106.5t112.5 70.5t136 25h560v-120h-335v-152h296zM398 115h86v435h-86q-62 0 -112.5 -25.5t-79.5 -73.5t-29 -116q0 -67 29 -116.5t79.5 -76.5t112.5 -27z" />
    <glyph glyph-name="oe" unicode="&#x153;" horiz-adv-x="993" 
d="M313 518q74 0 135 -35.5t98.5 -96t37.5 -135.5t-37.5 -135t-98.5 -95.5t-135 -35.5q-73 0 -134.5 35.5t-98.5 95.5t-37 135t37 135.5t98.5 96t134.5 35.5zM313 395q-36 0 -67 -17t-49.5 -49t-18.5 -78t18.5 -78t49.5 -48.5t67 -16.5t67 16.5t50 48.5t19 78t-19 78t-50 49
t-67 17zM718 518q74 0 127.5 -32t82 -88.5t28.5 -130.5v-54h-366q10 -51 50 -82t98 -31q55 0 100 22t72 45l-1 -118q-24 -21 -71.5 -42.5t-104.5 -21.5q-75 0 -136.5 34t-98 93t-36.5 135q0 74 33 135t91 98.5t132 37.5zM715 407q-47 0 -79 -29t-44 -78h242q-4 54 -40 80.5
t-79 26.5z" />
    <glyph glyph-name="Racute" unicode="&#x154;" horiz-adv-x="668" 
d="M372 670q47 0 92 -13t81.5 -40t58 -67.5t21.5 -96.5q0 -59 -29.5 -101.5t-77.5 -66t-104 -27.5l241 -258h-183l-233 274v-274h-139v670h272zM239 540v-169q24 -8 53.5 -12.5t59.5 -4.5q60 0 95.5 24.5t35.5 69.5q0 49 -37.5 70.5t-91.5 21.5h-115zM485 880l-137 -142
h-102l105 142h134z" />
    <glyph glyph-name="racute" unicode="&#x155;" horiz-adv-x="416" 
d="M396 363q-32 18 -67 18q-44 0 -73 -28.5t-51 -70.5v-282h-127v505h127v-95q26 45 61.5 75t80.5 30q27 0 49 -9v-143zM408 715l-137 -142h-102l105 142h134z" />
    <glyph glyph-name="uni0156" unicode="&#x156;" horiz-adv-x="668" 
d="M372 670q47 0 92 -13t81.5 -40t58 -67.5t21.5 -96.5q0 -59 -29.5 -101.5t-77.5 -66t-104 -27.5l241 -258h-183l-233 274v-274h-139v670h272zM239 540v-169q24 -8 53.5 -12.5t59.5 -4.5q60 0 95.5 24.5t35.5 69.5q0 49 -37.5 70.5t-91.5 21.5h-115zM328 -22q42 0 75 -25
t33 -70q0 -36 -15.5 -60t-39 -36t-48.5 -12q-19 0 -33.5 5.5t-23.5 12.5v68q22 -16 50 -16q19 0 30.5 9.5t11.5 26.5q0 16 -12.5 25t-27.5 9v63z" />
    <glyph glyph-name="uni0157" unicode="&#x157;" horiz-adv-x="416" 
d="M396 363q-32 18 -67 18q-44 0 -73 -28.5t-51 -70.5v-282h-127v505h127v-95q26 45 61.5 75t80.5 30q27 0 49 -9v-143zM143 -22q42 0 75 -25t33 -70q0 -36 -15.5 -60t-39 -36t-48.5 -12q-19 0 -33.5 5.5t-23.5 12.5v68q22 -16 50 -16q19 0 30.5 9.5t11.5 26.5
q0 16 -12.5 25t-27.5 9v63z" />
    <glyph glyph-name="Rcaron" unicode="&#x158;" horiz-adv-x="668" 
d="M372 670q47 0 92 -13t81.5 -40t58 -67.5t21.5 -96.5q0 -59 -29.5 -101.5t-77.5 -66t-104 -27.5l241 -258h-183l-233 274v-274h-139v670h272zM239 540v-169q24 -8 53.5 -12.5t59.5 -4.5q60 0 95.5 24.5t35.5 69.5q0 49 -37.5 70.5t-91.5 21.5h-115zM147 880h107l60 -68
l60 68h107l-130 -144h-74z" />
    <glyph glyph-name="rcaron" unicode="&#x159;" horiz-adv-x="416" 
d="M396 363q-32 18 -67 18q-44 0 -73 -28.5t-51 -70.5v-282h-127v505h127v-95q26 45 61.5 75t80.5 30q27 0 49 -9v-143zM70 715h107l60 -68l60 68h107l-130 -144h-74z" />
    <glyph glyph-name="Sacute" unicode="&#x15a;" horiz-adv-x="548" 
d="M283 683q58 0 106 -16t81 -37v-137q-36 22 -77 41t-93 19q-26 0 -51.5 -8t-42 -24t-16.5 -41q0 -33 29 -50t71 -34l82 -34q70 -30 103 -73t33 -98q0 -60 -34.5 -105.5t-92 -71.5t-127.5 -26q-59 0 -113 20t-94 49v137q44 -32 97 -54t113 -22q42 0 72 16.5t30 49.5
q0 26 -24.5 42.5t-53.5 27.5l-103 40q-78 30 -105.5 78.5t-27.5 107.5q0 61 33.5 106.5t87.5 71t117 25.5zM455 880l-137 -142h-102l105 142h134z" />
    <glyph glyph-name="sacute" unicode="&#x15b;" horiz-adv-x="442" 
d="M241 518q47 0 87 -14t62 -32v-112q-24 16 -58.5 31t-71.5 15q-36 0 -57 -16t-21 -38q0 -16 12 -29.5t46 -23.5l57 -19q115 -34 115 -133q0 -47 -26.5 -83.5t-71 -57.5t-98.5 -21q-51 0 -99 16t-73 35v111q19 -13 46 -25t56 -19.5t53 -7.5q38 0 58.5 13.5t20.5 38.5
q0 19 -17 30t-50 22l-62 22q-58 19 -80 54t-22 83t24.5 83.5t68.5 56t101 20.5zM401 715l-137 -142h-102l105 142h134z" />
    <glyph glyph-name="Scedilla" unicode="&#x15e;" horiz-adv-x="548" 
d="M283 683q58 0 106 -16t81 -37v-137q-36 22 -77 41t-93 19q-26 0 -51.5 -8t-42 -24t-16.5 -41q0 -33 29 -50t71 -34l82 -34q70 -30 103 -73t33 -98q0 -60 -34.5 -105.5t-92 -71.5t-127.5 -26q-59 0 -113 20t-94 49v137q44 -32 97 -54t113 -22q42 0 72 16.5t30 49.5
q0 26 -24.5 42.5t-53.5 27.5l-103 40q-78 30 -105.5 78.5t-27.5 107.5q0 61 33.5 106.5t87.5 71t117 25.5zM294 2l-4 -60q40 3 66.5 -20.5t26.5 -60.5q0 -45 -31.5 -73t-82.5 -28q-15 0 -39.5 6t-39.5 19l7 65q15 -9 32.5 -16.5t39.5 -7.5q13 0 24 7.5t11 21.5q0 12 -9.5 19
t-24.5 7q-8 0 -15.5 -2t-17.5 -7l-20 12l13 118h64z" />
    <glyph glyph-name="scedilla" unicode="&#x15f;" horiz-adv-x="442" 
d="M241 518q47 0 87 -14t62 -32v-112q-24 16 -58.5 31t-71.5 15q-36 0 -57 -16t-21 -38q0 -16 12 -29.5t46 -23.5l57 -19q115 -34 115 -133q0 -47 -26.5 -83.5t-71 -57.5t-98.5 -21q-51 0 -99 16t-73 35v111q19 -13 46 -25t56 -19.5t53 -7.5q38 0 58.5 13.5t20.5 38.5
q0 19 -17 30t-50 22l-62 22q-58 19 -80 54t-22 83t24.5 83.5t68.5 56t101 20.5zM237 2l-4 -60q40 3 66.5 -20.5t26.5 -60.5q0 -45 -31.5 -73t-82.5 -28q-15 0 -39.5 6t-39.5 19l7 65q15 -9 32.5 -16.5t39.5 -7.5q13 0 24 7.5t11 21.5q0 12 -9.5 19t-24.5 7q-8 0 -15.5 -2
t-17.5 -7l-20 12l13 118h64z" />
    <glyph glyph-name="Scaron" unicode="&#x160;" horiz-adv-x="548" 
d="M283 683q58 0 106 -16t81 -37v-137q-36 22 -77 41t-93 19q-26 0 -51.5 -8t-42 -24t-16.5 -41q0 -33 29 -50t71 -34l82 -34q70 -30 103 -73t33 -98q0 -60 -34.5 -105.5t-92 -71.5t-127.5 -26q-59 0 -113 20t-94 49v137q44 -32 97 -54t113 -22q42 0 72 16.5t30 49.5
q0 26 -24.5 42.5t-53.5 27.5l-103 40q-78 30 -105.5 78.5t-27.5 107.5q0 61 33.5 106.5t87.5 71t117 25.5zM117 880h107l60 -68l60 68h107l-130 -144h-74z" />
    <glyph glyph-name="scaron" unicode="&#x161;" horiz-adv-x="442" 
d="M241 518q47 0 87 -14t62 -32v-112q-24 16 -58.5 31t-71.5 15q-36 0 -57 -16t-21 -38q0 -16 12 -29.5t46 -23.5l57 -19q115 -34 115 -133q0 -47 -26.5 -83.5t-71 -57.5t-98.5 -21q-51 0 -99 16t-73 35v111q19 -13 46 -25t56 -19.5t53 -7.5q38 0 58.5 13.5t20.5 38.5
q0 19 -17 30t-50 22l-62 22q-58 19 -80 54t-22 83t24.5 83.5t68.5 56t101 20.5zM63 715h107l60 -68l60 68h107l-130 -144h-74z" />
    <glyph glyph-name="uni0162" unicode="&#x162;" horiz-adv-x="621" 
d="M594 670v-125h-214v-542h-138v542h-214v125h566zM340 2l-4 -60q40 3 66.5 -20.5t26.5 -60.5q0 -45 -31.5 -73t-82.5 -28q-15 0 -39.5 6t-39.5 19l7 65q15 -9 32.5 -16.5t39.5 -7.5q13 0 24 7.5t11 21.5q0 12 -9.5 19t-24.5 7q-8 0 -15.5 -2t-17.5 -7l-20 12l13 118h64z
" />
    <glyph glyph-name="uni0163" unicode="&#x163;" horiz-adv-x="458" 
d="M261 652v-147h140v-106h-140v-218q0 -34 15.5 -53.5t46.5 -19.5q27 0 46.5 6t36.5 17v-101q-19 -19 -47.5 -32t-71.5 -13q-68 0 -110.5 43.5t-42.5 119.5v251h-91v65q48 17 88.5 64t64.5 124h65zM302 2l-4 -60q40 3 66.5 -20.5t26.5 -60.5q0 -45 -31.5 -73t-82.5 -28
q-15 0 -39.5 6t-39.5 19l7 65q15 -9 32.5 -16.5t39.5 -7.5q13 0 24 7.5t11 21.5q0 12 -9.5 19t-24.5 7q-8 0 -15.5 -2t-17.5 -7l-20 12l13 118h64z" />
    <glyph glyph-name="Tcaron" unicode="&#x164;" horiz-adv-x="621" 
d="M594 670v-125h-214v-542h-138v542h-214v125h566zM144 880h107l60 -68l60 68h107l-130 -144h-74z" />
    <glyph glyph-name="tcaron" unicode="&#x165;" horiz-adv-x="492" 
d="M325 718h115l-30 -173h-95zM261 652v-147h140v-106h-140v-218q0 -34 15.5 -53.5t46.5 -19.5q27 0 46.5 6t36.5 17v-101q-19 -19 -47.5 -32t-71.5 -13q-68 0 -110.5 43.5t-42.5 119.5v251h-91v65q48 17 88.5 64t64.5 124h65z" />
    <glyph glyph-name="Tbar" unicode="&#x166;" horiz-adv-x="621" 
d="M594 670v-125h-214v-542h-138v542h-214v125h566zM491 879v-95h-360v95h360z" />
    <glyph glyph-name="tbar" unicode="&#x167;" horiz-adv-x="438" 
d="M385 306v-80h-124v-45q0 -34 15.5 -53.5t46.5 -19.5q27 0 46.5 6t36.5 17v-101q-19 -19 -47.5 -32t-71.5 -13q-68 0 -110.5 43.5t-42.5 119.5v78h-100v80h100v93h-91v65q48 17 88.5 64t64.5 124h65v-147h140v-106h-140v-93h124z" />
    <glyph glyph-name="Umacron" unicode="&#x16a;" horiz-adv-x="759" 
d="M669 672v-407q0 -87 -38.5 -149.5t-104 -96t-146.5 -33.5t-147 33.5t-104.5 96t-38.5 149.5v407h139v-399q0 -77 41.5 -115.5t109.5 -37.5q67 0 109 38t42 115v399h138zM560 879v-95h-360v95h360z" />
    <glyph glyph-name="umacron" unicode="&#x16b;" horiz-adv-x="591" 
d="M524 505v-301q0 -67 -30 -115.5t-81.5 -74.5t-116.5 -26q-66 0 -117.5 26t-81 74.5t-29.5 115.5v301h128l1 -278q0 -59 27 -88t72 -29q44 0 71.5 29t27.5 88v278h129zM482 714v-95h-360v95h360z" />
    <glyph glyph-name="Uring" unicode="&#x16e;" horiz-adv-x="759" 
d="M669 672v-407q0 -87 -38.5 -149.5t-104 -96t-146.5 -33.5t-147 33.5t-104.5 96t-38.5 149.5v407h139v-399q0 -77 41.5 -115.5t109.5 -37.5q67 0 109 38t42 115v399h138zM380 894q38 0 63.5 -25.5t25.5 -61.5t-25.5 -61.5t-63.5 -25.5t-64 25.5t-26 61.5t26 61.5t64 25.5z
M380 846q-16 0 -28 -11.5t-12 -27.5t12 -27.5t28 -11.5t27.5 11.5t11.5 27.5t-11.5 27.5t-27.5 11.5z" />
    <glyph glyph-name="uring" unicode="&#x16f;" horiz-adv-x="591" 
d="M524 505v-301q0 -67 -30 -115.5t-81.5 -74.5t-116.5 -26q-66 0 -117.5 26t-81 74.5t-29.5 115.5v301h128l1 -278q0 -59 27 -88t72 -29q44 0 71.5 29t27.5 88v278h129zM302 729q38 0 63.5 -25.5t25.5 -61.5t-25.5 -61.5t-63.5 -25.5t-64 25.5t-26 61.5t26 61.5t64 25.5z
M302 681q-16 0 -28 -11.5t-12 -27.5t12 -27.5t28 -11.5t27.5 11.5t11.5 27.5t-11.5 27.5t-27.5 11.5z" />
    <glyph glyph-name="Uhungarumlaut" unicode="&#x170;" horiz-adv-x="759" 
d="M669 672v-407q0 -87 -38.5 -149.5t-104 -96t-146.5 -33.5t-147 33.5t-104.5 96t-38.5 149.5v407h139v-399q0 -77 41.5 -115.5t109.5 -37.5q67 0 109 38t42 115v399h138zM626 880l-137 -142h-102l105 142h134zM448 880l-137 -142h-102l105 142h134z" />
    <glyph glyph-name="uhungarumlaut" unicode="&#x171;" horiz-adv-x="591" 
d="M524 505v-301q0 -67 -30 -115.5t-81.5 -74.5t-116.5 -26q-66 0 -117.5 26t-81 74.5t-29.5 115.5v301h128l1 -278q0 -59 27 -88t72 -29q44 0 71.5 29t27.5 88v278h129zM548 715l-137 -142h-102l105 142h134zM370 715l-137 -142h-102l105 142h134z" />
    <glyph glyph-name="Uogonek" unicode="&#x172;" horiz-adv-x="759" 
d="M669 672v-407q0 -87 -38.5 -149.5t-104 -96t-146.5 -33.5t-147 33.5t-104.5 96t-38.5 149.5v407h139v-399q0 -77 41.5 -115.5t109.5 -37.5q67 0 109 38t42 115v399h138zM369 1h110q-26 -8 -50.5 -22t-40 -31t-15.5 -33q0 -19 11.5 -31t32.5 -12q17 0 30 5t24 13v-91
q-10 -6 -34.5 -15t-59.5 -9q-30 0 -58 11t-46 33t-18 55q0 35 18.5 61t45 42.5t50.5 23.5z" />
    <glyph glyph-name="uogonek" unicode="&#x173;" horiz-adv-x="591" 
d="M524 505v-301q0 -67 -30 -115.5t-81.5 -74.5t-116.5 -26q-66 0 -117.5 26t-81 74.5t-29.5 115.5v301h128l1 -278q0 -59 27 -88t72 -29q44 0 71.5 29t27.5 88v278h129zM279 1h110q-26 -8 -50.5 -22t-40 -31t-15.5 -33q0 -19 11.5 -31t32.5 -12q17 0 30 5t24 13v-91
q-10 -6 -34.5 -15t-59.5 -9q-30 0 -58 11t-46 33t-18 55q0 35 18.5 61t45 42.5t50.5 23.5z" />
    <glyph glyph-name="Wcircumflex" unicode="&#x174;" horiz-adv-x="959" 
d="M949 670l-226 -670h-96l-149 431l-149 -431h-96l-223 670h158l124 -423l141 423h93l139 -423l126 423h158zM517 880l130 -144h-107l-60 68l-60 -68h-107l130 144h74z" />
    <glyph glyph-name="wcircumflex" unicode="&#x175;" horiz-adv-x="790" 
d="M780 505l-175 -505h-92l-118 327l-118 -327h-93l-174 505h138l93 -299l109 299h91l108 -299l93 299h138zM428 715l130 -144h-107l-60 68l-60 -68h-107l130 144h74z" />
    <glyph glyph-name="Ycircumflex" unicode="&#x176;" horiz-adv-x="681" 
d="M671 670l-259 -417v-253h-142v246l-260 424h163l167 -282l168 282h163zM378 880l130 -144h-107l-60 68l-60 -68h-107l130 144h74z" />
    <glyph glyph-name="ycircumflex" unicode="&#x177;" horiz-adv-x="597" 
d="M158 505l144 -322l140 322h145l-367 -745h-144l152 277l-218 468h148zM333 715l130 -144h-107l-60 68l-60 -68h-107l130 144h74z" />
    <glyph glyph-name="Ydieresis" unicode="&#x178;" horiz-adv-x="681" 
d="M671 670l-259 -417v-253h-142v246l-260 424h163l167 -282l168 282h163zM447 887q28 0 49 -20.5t21 -48.5q0 -29 -21 -49.5t-49 -20.5q-29 0 -49 20.5t-20 49.5q0 28 20 48.5t49 20.5zM237 887q28 0 49 -20.5t21 -48.5q0 -29 -21 -49.5t-49 -20.5q-29 0 -49 20.5t-20 49.5
q0 28 20 48.5t49 20.5z" />
    <glyph glyph-name="Zacute" unicode="&#x179;" horiz-adv-x="691" 
d="M627 670v-36l-344 -509h344v-125h-563v36l338 509h-316v125h541zM525 880l-137 -142h-102l105 142h134z" />
    <glyph glyph-name="zacute" unicode="&#x17a;" horiz-adv-x="557" 
d="M497 505v-31l-261 -365h271v-109h-454v32l250 365h-235v108h429zM451 715l-137 -142h-102l105 142h134z" />
    <glyph glyph-name="Zdotaccent" unicode="&#x17b;" horiz-adv-x="691" 
d="M627 670v-36l-344 -509h344v-125h-563v36l338 509h-316v125h541zM354 880q28 0 49 -20.5t21 -48.5q0 -29 -21 -49.5t-49 -20.5q-29 0 -49 20.5t-20 49.5q0 28 20 48.5t49 20.5z" />
    <glyph glyph-name="zdotaccent" unicode="&#x17c;" horiz-adv-x="557" 
d="M497 505v-31l-261 -365h271v-109h-454v32l250 365h-235v108h429zM280 715q28 0 49 -20.5t21 -48.5q0 -29 -21 -49.5t-49 -20.5q-29 0 -49 20.5t-20 49.5q0 28 20 48.5t49 20.5z" />
    <glyph glyph-name="Zcaron" unicode="&#x17d;" horiz-adv-x="691" 
d="M627 670v-36l-344 -509h344v-125h-563v36l338 509h-316v125h541zM187 880h107l60 -68l60 68h107l-130 -144h-74z" />
    <glyph glyph-name="zcaron" unicode="&#x17e;" horiz-adv-x="557" 
d="M497 505v-31l-261 -365h271v-109h-454v32l250 365h-235v108h429zM113 715h107l60 -68l60 68h107l-130 -144h-74z" />
    <glyph glyph-name="circumflex" unicode="&#x2c6;" horiz-adv-x="494" 
d="M284 715l130 -144h-107l-60 68l-60 -68h-107l130 144h74z" />
    <glyph glyph-name="caron" unicode="&#x2c7;" horiz-adv-x="474" 
d="M70 715h107l60 -68l60 68h107l-130 -144h-74z" />
    <glyph glyph-name="breve" unicode="&#x2d8;" horiz-adv-x="484" 
d="M404 715q-2 -69 -48 -109.5t-114 -40.5q-67 0 -113.5 40.5t-48.5 109.5h87q5 -28 24 -45t51 -17t51.5 18.5t23.5 43.5h87z" />
    <glyph glyph-name="dotaccent" unicode="&#x2d9;" horiz-adv-x="306" 
d="M153 715q28 0 49 -20.5t21 -48.5q0 -29 -21 -49.5t-49 -20.5q-29 0 -49 20.5t-20 49.5q0 28 20 48.5t49 20.5z" />
    <glyph glyph-name="ring" unicode="&#x2da;" horiz-adv-x="333" 
d="M167 729q38 0 63.5 -25.5t25.5 -61.5t-25.5 -61.5t-63.5 -25.5t-64 25.5t-26 61.5t26 61.5t64 25.5zM167 681q-16 0 -28 -11.5t-12 -27.5t12 -27.5t28 -11.5t27.5 11.5t11.5 27.5t-11.5 27.5t-27.5 11.5z" />
    <glyph glyph-name="ogonek" unicode="&#x2db;" horiz-adv-x="600" 
d="M272 1h110q-26 -8 -50.5 -22t-40 -31t-15.5 -33q0 -19 11.5 -31t32.5 -12q17 0 30 5t24 13v-91q-10 -6 -34.5 -15t-59.5 -9q-30 0 -58 11t-46 33t-18 55q0 35 18.5 61t45 42.5t50.5 23.5z" />
    <glyph glyph-name="tilde" unicode="&#x2dc;" horiz-adv-x="460" 
d="M413 703q0 -57 -33.5 -89t-82.5 -32q-35 0 -55 11.5t-34.5 23t-31.5 11.5t-26 -12t-9 -30h-81q0 57 33.5 89t82.5 32q35 0 55 -11.5t34.5 -23t32.5 -11.5q17 0 25.5 12t8.5 30h81z" />
    <glyph glyph-name="hungarumlaut" unicode="&#x2dd;" horiz-adv-x="512" 
d="M477 715l-137 -142h-102l105 142h134zM299 715l-137 -142h-102l105 142h134z" />
    <glyph glyph-name="uni0326" unicode="&#x326;" horiz-adv-x="0" 
d="M117 -22q42 0 75 -25t33 -70q0 -36 -15.5 -60t-39 -36t-48.5 -12q-19 0 -33.5 5.5t-23.5 12.5v68q22 -16 50 -16q19 0 30.5 9.5t11.5 26.5q0 16 -12.5 25t-27.5 9v63z" />
    <glyph glyph-name="Wgrave" unicode="&#x1e80;" horiz-adv-x="959" 
d="M949 670l-226 -670h-96l-149 431l-149 -431h-96l-223 670h158l124 -423l141 423h93l139 -423l126 423h158zM373 880l107 -75l-6 -67l-107 75z" />
    <glyph glyph-name="wgrave" unicode="&#x1e81;" horiz-adv-x="790" 
d="M780 505l-175 -505h-92l-118 327l-118 -327h-93l-174 505h138l93 -299l109 299h91l108 -299l93 299h138zM284 715l107 -75l-6 -67l-107 75z" />
    <glyph glyph-name="Wacute" unicode="&#x1e82;" horiz-adv-x="959" 
d="M949 670l-226 -670h-96l-149 431l-149 -431h-96l-223 670h158l124 -423l141 423h93l139 -423l126 423h158zM651 880l-137 -142h-102l105 142h134z" />
    <glyph glyph-name="wacute" unicode="&#x1e83;" horiz-adv-x="790" 
d="M780 505l-175 -505h-92l-118 327l-118 -327h-93l-174 505h138l93 -299l109 299h91l108 -299l93 299h138zM562 715l-137 -142h-102l105 142h134z" />
    <glyph glyph-name="Wdieresis" unicode="&#x1e84;" horiz-adv-x="959" 
d="M949 670l-226 -670h-96l-149 431l-149 -431h-96l-223 670h158l124 -423l141 423h93l139 -423l126 423h158zM585 887q28 0 49 -20.5t21 -48.5q0 -29 -21 -49.5t-49 -20.5q-29 0 -49 20.5t-20 49.5q0 28 20 48.5t49 20.5zM375 887q28 0 49 -20.5t21 -48.5q0 -29 -21 -49.5
t-49 -20.5q-29 0 -49 20.5t-20 49.5q0 28 20 48.5t49 20.5z" />
    <glyph glyph-name="wdieresis" unicode="&#x1e85;" horiz-adv-x="790" 
d="M780 505l-175 -505h-92l-118 327l-118 -327h-93l-174 505h138l93 -299l109 299h91l108 -299l93 299h138zM497 722q28 0 49 -20.5t21 -48.5q0 -29 -21 -49.5t-49 -20.5q-29 0 -49 20.5t-20 49.5q0 28 20 48.5t49 20.5zM287 722q28 0 49 -20.5t21 -48.5q0 -29 -21 -49.5
t-49 -20.5q-29 0 -49 20.5t-20 49.5q0 28 20 48.5t49 20.5z" />
    <glyph glyph-name="Ygrave" unicode="&#x1ef2;" horiz-adv-x="681" 
d="M671 670l-259 -417v-253h-142v246l-260 424h163l167 -282l168 282h163zM234 880l107 -75l-6 -67l-107 75z" />
    <glyph glyph-name="ygrave" unicode="&#x1ef3;" horiz-adv-x="597" 
d="M158 505l144 -322l140 322h145l-367 -745h-144l152 277l-218 468h148zM189 715l107 -75l-6 -67l-107 75z" />
    <glyph glyph-name="endash" unicode="&#x2013;" horiz-adv-x="605" 
d="M550 318v-120h-490v120h490z" />
    <glyph glyph-name="emdash" unicode="&#x2014;" horiz-adv-x="888" 
d="M828 318v-120h-768v120h768z" />
    <glyph glyph-name="quoteleft" unicode="&#x2018;" horiz-adv-x="262" 
d="M150 688l92 -16l-90 -259l-112 28z" />
    <glyph glyph-name="quoteright" unicode="&#x2019;" horiz-adv-x="252" 
d="M115 688l112 -28l-110 -247l-92 16z" />
    <glyph glyph-name="quotesinglbase" unicode="&#x201a;" horiz-adv-x="346" 
d="M135 115l112 -28l-100 -252l-92 16z" />
    <glyph glyph-name="quotedblleft" unicode="&#x201c;" horiz-adv-x="472" 
d="M150 706l92 -16l-90 -259l-112 28zM350 706l92 -16l-90 -259l-112 28z" />
    <glyph glyph-name="quotedblright" unicode="&#x201d;" horiz-adv-x="452" 
d="M317 426l-92 16l90 259l112 -28zM117 426l-92 16l90 259l112 -28z" />
    <glyph glyph-name="quotedblbase" unicode="&#x201e;" horiz-adv-x="452" 
d="M317 -154l-92 16l90 259l112 -28zM117 -154l-92 16l90 259l112 -28z" />
    <glyph glyph-name="dagger" unicode="&#x2020;" horiz-adv-x="453" 
d="M413 520v-110h-123v-510h-127v510h-123v110h123v150h127v-150h123z" />
    <glyph glyph-name="daggerdbl" unicode="&#x2021;" horiz-adv-x="600" 
d="M413 255v-110h-123v-245h-127v245h-123v110h123v155h-123v110h123v150h127v-150h123v-110h-123v-155h123z" />
    <glyph glyph-name="bullet" unicode="&#x2022;" horiz-adv-x="451" 
d="M225 449q40 0 73 -19.5t53 -53t20 -73.5q0 -39 -20 -72t-53 -53t-73 -20t-73 20t-52.5 53t-19.5 72q0 40 19.5 73.5t52.5 53t73 19.5z" />
    <glyph glyph-name="ellipsis" unicode="&#x2026;" horiz-adv-x="820" 
d="M410 142q33 0 56.5 -23.5t23.5 -56.5t-23.5 -56.5t-56.5 -23.5t-56.5 23.5t-23.5 56.5t23.5 56.5t56.5 23.5zM680 142q33 0 56.5 -23.5t23.5 -56.5t-23.5 -56.5t-56.5 -23.5t-56.5 23.5t-23.5 56.5t23.5 56.5t56.5 23.5zM140 142q33 0 56.5 -23.5t23.5 -56.5t-23.5 -56.5
t-56.5 -23.5t-56.5 23.5t-23.5 56.5t23.5 56.5t56.5 23.5z" />
    <glyph glyph-name="guilsinglleft" unicode="&#x2039;" horiz-adv-x="370" 
d="M290 32l-235 195v38l235 203v-129l-110 -92l110 -86v-129z" />
    <glyph glyph-name="guilsinglright" unicode="&#x203a;" horiz-adv-x="365" 
d="M80 468l235 -195v-38l-235 -203v129l110 92l-110 86v129z" />
    <glyph glyph-name="fraction" unicode="&#x2044;" horiz-adv-x="93" 
d="M343 670l-495 -670h-98l492 670h101z" />
    <glyph glyph-name="uni2074" unicode="&#x2074;" horiz-adv-x="288" 
d="M212 670v-171h35v-60h-35v-66h-67v66h-125v36q37 40 74 87.5t70 107.5h48zM145 553q-11 -16 -18 -26t-22 -28h40v54z" />
    <glyph glyph-name="Euro" unicode="&#x20ac;" horiz-adv-x="622" 
d="M481 309v-80h-206q21 -51 62.5 -81.5t98.5 -30.5q44 0 76.5 14t59.5 37v-133q-64 -50 -150 -50q-70 0 -130.5 30t-103.5 85t-62 129h-81v80h69q-1 13 -1 26v19h-68v80h79q18 76 61.5 132.5t104.5 87.5t132 31q43 0 87.5 -17t67.5 -40v-138q-25 24 -60 44t-81 20
q-59 0 -101.5 -33t-62.5 -87h209v-80h-225q-1 -9 -1 -19q0 -13 1 -26h225z" />
    <glyph glyph-name="trademark" unicode="&#x2122;" horiz-adv-x="531" 
d="M240 671v-52h-69v-152h-62v152h-69v52h200zM491 670v-203h-63v84l-37 -50h-18l-41 50v-84h-63v203h37l76 -102l73 102h36z" />
    <glyph glyph-name="minus" unicode="&#x2212;" horiz-adv-x="541" 
d="M461 373v-120h-381v120h381z" />
    <glyph glyph-name="uni2215" unicode="&#x2215;" horiz-adv-x="683" 
d="M638 670l-495 -670h-98l492 670h101z" />
    <glyph glyph-name="approxequal" unicode="&#x2248;" horiz-adv-x="569" 
d="M509 289q0 -67 -39.5 -111t-101.5 -44q-33 0 -55.5 9.5t-39.5 21.5t-32.5 21.5t-34.5 9.5q-21 0 -32.5 -16.5t-11.5 -39.5h-102q0 68 39.5 111.5t101.5 43.5q33 0 55.5 -9.5t39.5 -21.5t32.5 -21.5t34.5 -9.5q22 0 33 17t11 39h102zM509 504q0 -67 -39.5 -111t-101.5 -44
q-33 0 -55.5 9.5t-39.5 21.5t-32.5 21.5t-34.5 9.5q-21 0 -32.5 -16.5t-11.5 -39.5h-102q0 68 39.5 111.5t101.5 43.5q33 0 55.5 -9.5t39.5 -21.5t32.5 -21.5t34.5 -9.5q22 0 33 17t11 39h102z" />
    <glyph glyph-name="notequal" unicode="&#x2260;" horiz-adv-x="551" 
d="M471 271v-120h-229l-45 -89h-93l44 89h-68v120h128l40 80h-168v120h228l30 59h96l-30 -59h67v-120h-128l-40 -80h168z" />
    <glyph glyph-name="lessequal" unicode="&#x2264;" horiz-adv-x="556" 
d="M476 620l-396 -219v-42l396 -228v111l-248 139l248 128v111zM80 102v-102h396v102h-396z" />
    <glyph glyph-name="greaterequal" unicode="&#x2265;" horiz-adv-x="549" 
d="M80 620l396 -219v-42l-396 -228v111l248 139l-248 128v111zM476 102v-102h-396v102h396z" />
    </font>
</defs>
</svg>
