<?xml version="1.0" standalone="no"?>
<!DOCTYPE svg PUBLIC "-//W3C//DTD SVG 1.1//EN" "http://www.w3.org/Graphics/SVG/1.1/DTD/svg11.dtd" >
<svg xmlns="http://www.w3.org/2000/svg" xmlns:xlink="http://www.w3.org/1999/xlink" version="1.1">
<metadata>
Created by FontForge 20170731 at Thu Jan 16 18:42:13 2020
 By Aleksey,,,
Copyright 2015 The Sen Project Authors (https://github.com/philatype/Sen)
</metadata>
<defs>
<font id="Sen-ExtraBold" horiz-adv-x="600" >
  <font-face 
    font-family="Sen ExtraBold"
    font-weight="800"
    font-stretch="normal"
    units-per-em="1024"
    panose-1="0 0 0 0 0 0 0 0 0 0"
    ascent="819"
    descent="-205"
    x-height="510"
    cap-height="670"
    bbox="-250 -255 1001 920"
    underline-thickness="50"
    underline-position="-175"
    unicode-range="U+000D-263A"
  />
<missing-glyph horiz-adv-x="512" 
d="M51 -240h410v960h-410v-960zM102 -189v858h308v-858h-308z" />
    <glyph glyph-name="smileface" unicode="&#x3a;D" horiz-adv-x="579" 
d="M544 335q24 -70 9.5 -139.5t-60.5 -123.5t-117 -78q-52 -18 -105 -14t-100 27t-82.5 62.5t-53.5 91.5q-18 53 -14 105.5t27 99.5t62.5 82.5t91.5 53.5q71 24 140 9.5t123.5 -60.5t78.5 -116zM370 14q64 22 106.5 72t56 114t-9.5 128q-22 65 -72 107t-113.5 55.5
t-127.5 -8.5q-8 -2 -15.5 -5.5t-14.5 -7.5v-1q2 -6 -3 -8t-7 4q-4 -2 -9 -5l-10 -6q-2 -2 -3 -2l-11 -8q5 0 6 -4q2 -5 -4 -7q-5 -2 -7 4v3q-7 -6 -14 -13l-14 -14q3 -5 -3 -7q-1 -1 -3 0q-4 -6 -6 -8q3 -3 3 -4q2 -5 -3 -7q-4 -1 -7 2l-2 -4t-3 -4q5 0 6 -5q2 -5 -4 -7
q-4 -1 -7 3l-6 -11q5 2 7 -4q2 -5 -3 -7t-7 4q-2 -4 -4 -10q4 0 5 -3q2 -6 -4 -8q-4 0 -5 2l-3 -11l3 -3q2 -5 -5 -7q-1 -1 -3 -1q-3 -12 -5 -24.5t-3 -26.5q4 -2 5 -4q2 -5 -4 -7l-1 -1q0 -7 0.5 -15.5t1.5 -17.5q2 -2 2 -3q2 -3 -1 -6l2 -8t2 -9q5 3 7 -3t-4 -7v-1
q1 -2 2 -5l2 -6l3 -8q5 2 7 -4q2 -5 -3 -7q2 -4 4 -7.5t3 -7.5q5 0 5 -4q2 -2 0 -4q7 -15 18 -28l0.5 0.5t1.5 0.5q5 2 7 -3t-2 -7q6 -7 12.5 -13t12.5 -13q4 0 6 -4v-1q3 -2 7 -6q2 3 4 3q5 2 7 -3q0 -5 -2 -6q4 -4 11 -7q-2 5 3 7q6 2 8 -4q2 -5 -4 -7q15 -9 30 -15
q0 1 -1 2q-2 5 4 7q5 2 7 -3q2 -6 -3 -9h-2q5 -2 13 -4q-2 7 4 9q5 2 7 -5q1 -4 -3 -7l11 -3q0 4 4 4q5 2 7 -3v-3q2 -1 4.5 -1t4.5 -1l1 1q5 2 7 -2q9 -1 18 -1.5t19 0.5q0 4 3 4q6 2 8 -3v-1q5 1 10.5 1.5t9.5 1.5q-2 0 -2 2q-2 6 4 8q5 2 7 -4q0 -3 -1 -5q15 3 34 9z
M271 463q-5 -2 -7 3t3 7t7 -3t-3 -7zM224 460q-5 -2 -7 4q-2 5 4 7q5 2 7 -3q2 -6 -4 -8zM290 453q-6 -2 -8 4q-2 5 4 7q5 2 7 -4q2 -5 -3 -7zM242 453q-5 -2 -7 4q-2 5 4 7q5 2 7 -4q2 -5 -4 -7zM196 451q-6 -2 -8 4q-2 5 4 7q5 2 7 -4q2 -5 -3 -7zM307 446q-5 -3 -7 3t4 8
t8 -4q2 -5 -5 -7zM262 444q-6 -2 -8 3t3 7q7 2 9 -3t-4 -7zM214 444q-4 -2 -8 3q-2 5 5 7q5 2 7 -3t-4 -7zM166 441q-5 0 -5 6t5 6q6 0 6 -6t-6 -6zM327 436q-5 -2 -7 4q-2 5 4 7q5 2 7 -3q1 -4 -4 -8zM273 440q-2 5 3 7t7 -3q2 -6 -3 -8t-7 4zM226 438q-2 5 4 7q5 2 7 -4
q2 -5 -4 -7q-5 -2 -7 4zM186 434q-5 -2 -7 4q-2 5 3 7t7 -4q2 -5 -3 -7zM345 429q-5 -2 -7 4q-2 5 3 7q6 2 8 -4q2 -5 -4 -7zM291 431q-2 5 4 7q5 2 7 -4q2 -5 -3 -8q-6 -2 -8 5zM244 430q-2 6 3 8q6 2 8 -4q1 -4 -4 -8q-6 -2 -7 4zM197 430q0 6 6 6t6 -6t-6 -6t-6 6z
M158 424q-7 -2 -8 4q-2 5 3 7q7 2 9 -3q2 -6 -4 -8zM365 419q-6 -2 -8 3q-2 6 4 8t7 -4q2 -5 -3 -7zM310 422q-1 2 0.5 4.5t3.5 3.5q6 2 7 -4q2 -5 -4 -7q-5 -2 -7 3zM267 428q6 2 7 -4q2 -5 -3 -7t-7 3t3 8zM222 428q5 0 5 -6t-5 -6q-6 0 -6 6t6 6zM347 407q-2 4 3 6
q3 0 5 -1q9 6 20 9q1 0 1 0.5t1 0.5q17 6 35 3.5t34 -11.5q34 -19 48 -65q2 -7 3 -12.5t2 -10.5q0 -7 -6 -9q-5 -2 -9 0q-4 4 -4 6q-1 10 -5 20q-13 41 -44 57q-23 11 -48 3q-4 -1 -7.5 -3t-7.5 -4q1 0 2 -1q9 -4 12.5 -14.5t-1.5 -18.5q-3 -7 -12 -11q-10 -3 -21 2
q-3 2 -5.5 4.5l-4.5 4.5q-4 -13 -3.5 -29t6.5 -36q3 -7 -3 -13v-1q2 -5 -3 -7q-6 -2 -8 4v4q-1 1 -2 2.5l-3 4.5q-3 9 -4.5 18.5t-2.5 19.5q-3 0 -7 4q-2 5 5 7q1 1 2 1q1 19 8.5 36t23.5 30zM130 414q-6 -2 -8 4q-2 5 4 7q5 2 7 -4q2 -5 -3 -7zM169 420q0 5 6 5t6 -5
q0 -6 -6 -6t-6 6zM329 413q-2 5 4 7q5 2 7 -3q2 -6 -4 -8q-5 -2 -7 4zM285 420q5 2 7 -4q2 -5 -3 -7t-7 4q-2 5 3 7zM239 418q5 2 7 -4q2 -5 -4 -7q-5 -2 -7 4q-2 5 4 7zM191 418q5 2 7 -4q2 -5 -3 -7t-7 3q-2 6 3 8zM148 405q-5 -2 -7 3q-2 6 3 8q6 2 8 -4q2 -5 -4 -7z
M304 411q6 2 8 -4t-4 -7q-6 -2 -8 3q-2 6 4 8zM256 410q7 2 9 -3t-4 -7t-8 3t3 7zM206 403q0 6 7 6q5 0 5 -6t-5 -6q-7 0 -7 6zM163 408q6 2 8 -3q2 -6 -4 -8q-5 -2 -7 4q-2 5 3 7zM120 395q-5 -2 -7 4q-2 5 4 7q5 2 7 -3q2 -6 -4 -8zM326 392q-5 -2 -7 4q-2 5 4 7q5 2 7 -3
q2 -6 -4 -8zM276 401q5 2 7 -3q2 -6 -3 -8t-7 4q-2 5 3 7zM229 401q5 2 7 -4q2 -5 -4 -7q-5 -2 -7 4q-2 5 4 7zM131 392q-2 5 4 7q5 2 7 -4q2 -5 -4 -7q-5 -2 -7 4zM178 394q0 5 6 5t6 -5q0 -6 -6 -6t-6 6zM294 394q5 2 7 -4q2 -5 -3 -7t-7 3q-2 6 3 8zM248 392q5 2 7 -4
q2 -5 -4 -7q-5 -2 -7 3q-2 6 4 8zM200 391q5 2 8 -3q2 -6 -4 -7q-5 -2 -7 3t3 7zM111 379q-6 -2 -8 3q-2 6 4 7q5 2 7 -3t-3 -7zM153 389q6 2 8 -3q3 -5 -3 -7t-8 3t3 7zM314 384q5 2 7 -3q2 -6 -3 -8q-6 -2 -8 4q-3 5 4 7zM274 381q2 -7 -4 -9q-5 -2 -7 5q-2 5 3 7
q6 2 8 -3zM306 266q-5 -2 -7 3q0 1 -0.5 1h-0.5q-5 -2 -9 1q-3 2 -3 7q-1 8 -5 19q-11 32 -39 46q-25 13 -51 5l-1 -1q-8 -3 -17 -8q2 0 6 -2q9 -4 12.5 -13.5t-0.5 -17.5t-13 -11q-10 -3 -18 1t-13 12q-7 -22 0 -51q14 -1 26 -10v-0.5t1 -0.5q4 0 5 -4q2 -5 -4 -7h-4
q-4 -2 -6 1q-10 7 -24 7h-6t-6 -2q-4 -1 -7 -3l-6 -4q0 -1 -2 -1q-5 -2 -8 2q-2 1 -2 5q0 2 2 3q-4 0 -4 3q-2 6 4 7q5 2 7 -3v-1q3 2 5.5 3.5t5.5 2.5h3q-3 12 -3 24q-2 2 -3 4q-2 5 4 7q1 13 8 30q9 20 27 34v1q-2 5 3 7q4 1 7 -2q8 5 15 6q1 1 1.5 1h0.5q2 4 4 5
q4 1 7 -2q12 1 22 0q-3 1 -4 4q-2 6 4 8q5 2 7 -3q2 -7 -3 -9h-1q3 -1 5.5 -1.5t5.5 -1.5q0 6 4 7q5 2 7 -4q1 -3 -2 -6q6 -2 10 -4q0 4 4 4q6 2 8 -3q1 -4 -2 -7q14 -9 23 -23q5 0 5 -4q3 -2 0 -5q6 -9 9 -19q2 -7 2.5 -12.5t1.5 -10.5v-2q6 0 6 -5q2 -6 -4 -7zM172 382
q6 2 8 -4t-4 -8q-5 -2 -7 4t3 8zM126 380q5 2 7 -5q2 -5 -4 -7q-5 -2 -7 4t4 8zM289 363q-5 -2 -7 4q-2 5 3 7t7 -4q2 -5 -3 -7zM144 372q5 2 7 -4q2 -5 -4 -7q-5 -2 -7 3q-2 6 4 8zM99 358q-6 0 -6 6t6 6q5 0 5 -6t-5 -6zM311 363q2 -6 -4 -7q-6 -2 -8 3t4 7t8 -3zM116 362
q5 2 7 -3q2 -6 -3 -8t-7 4q-2 5 3 7zM279 346q-5 -2 -7 4q-2 5 3 7q6 2 8 -4q2 -5 -4 -7zM91 342q-5 -2 -7 3q-2 6 3 8q6 2 8 -4q2 -5 -4 -7zM135 353q5 2 7 -4q2 -5 -4 -7q-5 -2 -7 4q-2 5 4 7zM298 337q-5 -2 -7 4q-3 5 3 7q5 2 7 -4q2 -5 -3 -7zM107 343q5 2 7 -3t-3 -7
q-2 -1 -5 0t-4 3q-2 5 5 7zM129 324q-5 -2 -7 5q-2 5 3 7t7 -4q2 -5 -3 -8zM82 322q-5 -2 -7 5q-2 5 3 7t7 -4t-3 -8zM96 326q6 2 8 -4q3 -5 -4 -7q-5 -2 -7 3t3 8zM303 321q6 2 8 -4t-4 -7q-5 -2 -7 3q-2 6 3 8zM123 313q2 -6 -3 -8q-6 -2 -8 4q-2 5 4 7q5 2 7 -3zM72 305
q-5 -2 -7 4q-2 5 4 7q5 2 7 -4q2 -5 -4 -7zM420 305q-6 -2 -8 3q-3 5 4 7q5 2 7 -3t-3 -7zM467 305q-6 -2 -8 3q-2 6 4 7q6 2 8 -3t-4 -7zM87 307q5 2 7 -4q2 -5 -3 -7t-7 3q-2 6 3 8zM438 295q-5 -2 -7 4q-2 5 4 7q5 2 7 -4q2 -5 -4 -7zM391 295q-5 -2 -7 4q-2 5 3 7t7 -4
q2 -5 -3 -7zM110 289q-6 -2 -8 3q-2 6 4 7q6 2 8 -3t-4 -7zM63 286q-5 -2 -7 4q-2 5 4 7q5 3 7 -3t-4 -8zM410 286q-5 -2 -7 3q-2 6 3 8q6 2 8 -4t-4 -7zM363 286q-6 -2 -8 3t4 7t8 -3t-4 -7zM477 292q40 19 37 -53q-2 -33 -14.5 -73t-42 -74.5t-82.5 -53.5q0 -5 -4 -6
q-5 -2 -7 3q-5 -1 -9.5 -2t-9.5 -2l1 -1q2 -5 -4 -7q-5 -2 -7 3v4q-10 -1 -19 0t-19 2l2 -3q2 -5 -4 -7q-5 -2 -7 3q-2 6 3 8h1q-5 0 -11 2q0 -3 -4 -5q-5 -2 -7 3q-1 3 0 6l-7 3q-2 -4 -4 -5q-6 -2 -8 4q-1 3 1 5l-9 5q-2 -4 -4 -4q-5 -2 -7 3q-2 4 2 6q-3 2 -5.5 4t-4.5 3
q0 -1 0.5 -1t0.5 -1q2 -5 -4 -7q-5 -2 -7 4q-2 5 4 7h3q-17 14 -28 26q-6 -2 -8 3q0 3 1 4q-12 13 -20 27q-5 -2 -7 4q-2 4 2 6q-2 5 -5 9t-5 8q-2 0 -2 3q-1 2 0 3q-2 4 -2 6q-3 7 -1 14q-5 0 -6 4q-2 5 3 7t7 -3q1 0 1 -0.5v-0.5q4 5 17 9q0 3 4 5q3 1 7 -3q5 1 9 2l8 2v1
q-2 5 4 7q5 2 8 -3v-2q5 1 10.5 2.5t10.5 2.5q-3 0 -5 4q-2 5 4 7q5 2 7 -4q2 -4 -2 -6q6 2 12.5 3.5t12.5 3.5q-4 0 -6 4q-2 6 4 8t8 -3q2 -4 -2 -8q11 3 20 5.5t19 6.5q0 1 2 1q2 2 2 0l23 7l1.5 1.5l1.5 1.5h4q5 2 10.5 3.5t10.5 2.5q2 3 3 3q4 1 5 0q5 2 10.5 4t10.5 3
q0 2 3 3h4q5 2 10.5 4t11.5 3l2 2h3q20 8 35 14.5t23 9.5zM454 295q5 2 7 -3q3 -5 -4 -7q-5 -2 -7 3t4 7zM310 287q-3 5 3 7q5 2 7 -3t-3 -7t-7 3zM78 290q5 2 7 -4q2 -5 -4 -7q-5 -2 -7 4q-2 5 4 7zM382 276q-5 -2 -7 4q-2 5 3 7q6 2 8 -3q2 -6 -4 -8zM430 275
q-2 -1 -4.5 0.5t-3.5 3.5q-2 5 4 7q5 2 7 -4q2 -5 -3 -7zM53 269q-6 -2 -8 3q-2 6 4 8t8 -3q2 -7 -4 -8zM103 277q2 -6 -3 -8t-7 3q-2 6 3 8t7 -3zM353 266q-5 -2 -7 3q-2 7 4 9q5 2 7 -5q2 -5 -4 -7zM401 265q-5 -2 -7 3q-2 6 3 8q6 2 7 -4q2 -5 -3 -7zM119 261q-5 -2 -7 4
q-2 5 3 7t7 -3q2 -6 -3 -8zM68 270q6 2 8 -4q2 -5 -4 -7q-5 -2 -7 4q-2 5 3 7zM326 256q-4 -1 -8 4q-2 5 4 7q5 2 7 -3q2 -6 -3 -8zM278 256q-5 -2 -7 4q-2 5 4 7q5 2 7 -4q2 -5 -4 -7zM373 255q-5 -2 -7 4q-2 5 4 7q5 2 7 -4q2 -5 -4 -7zM232 254q-5 -2 -7 4q-3 5 3 7
q5 2 7 -4q2 -5 -3 -7zM90 252q-5 -2 -7 3q-2 6 4 8q5 2 7 -4q2 -5 -4 -7zM250 247q-6 -2 -8 3q-1 4 4 8q5 2 7 -4q2 -5 -3 -7zM297 247q-5 -2 -7 3q-2 6 3 8q6 2 8 -4q2 -5 -4 -7zM341 256q5 2 7 -3t-3 -7q-6 -2 -8 3t4 7zM203 245q-5 -2 -7 3t3 7t7 -3q3 -5 -3 -7zM61 253
q5 0 5 -5q0 -6 -5 -6q-6 0 -6 6q0 5 6 5zM266 248q5 2 7 -3q2 -6 -4 -8q-5 -2 -7 4q-2 5 4 7zM222 237q-5 -2 -7 4q-2 5 3 7t7 -3q2 -6 -3 -8zM317 236q-5 -2 -7 4q-3 5 3 7q5 2 7 -4q3 -5 -3 -7zM77 244q6 2 8 -4q2 -5 -4 -7q-5 -2 -7 4q-3 5 3 7zM241 228q-6 -2 -8 4
q-2 5 4 7q5 2 7 -4q2 -5 -3 -7zM193 228q-5 -2 -7 3q-2 6 4 8q5 2 7 -4q2 -5 -4 -7zM288 227q-5 -2 -7 3q-2 6 4 8q5 2 7 -4q2 -5 -4 -7zM96 236q5 2 7 -3t-4 -7q-5 -2 -7 3t4 7zM57 231q2 -5 -5 -7q-5 -2 -7 3t4 7t8 -3zM213 218q-7 -2 -9 3q-2 6 5 8q5 2 7 -3q2 -6 -3 -8z
M166 217q-6 -2 -8 4t4 8q5 2 7 -3q2 -7 -3 -9zM72 215q-6 -2 -8 4t4 8q5 2 7 -4t-3 -8zM140 215q2 -5 -3 -7t-7 3q-2 6 3 8t7 -4zM180 219q5 2 7 -4q2 -5 -3 -7t-7 4q-2 5 3 7zM90 206q-5 -2 -7 3q-2 6 3 8q6 2 8 -4q2 -5 -4 -7zM106 209q5 3 7 -3t-4 -8t-8 4q-2 5 5 7z
M152 209q6 2 8 -3t-5 -7q-5 -2 -7 3t4 7zM66 204q2 -6 -4 -8q-5 -2 -7 4q-3 5 4 7q5 2 7 -3zM81 189q-6 -2 -8 4q-2 5 4 7q5 2 7 -4q2 -5 -3 -7zM128 189q-6 -2 -8 4q-2 5 4 7q5 2 7 -4q2 -5 -3 -7zM99 180q-5 -2 -7 3t3 7t7 -3t-3 -7zM75 177q2 -6 -4 -8q-5 -2 -7 5
q-2 5 4 7q5 2 7 -4zM116 180q5 2 7 -4t-4 -8q-5 -2 -7 5q-2 5 4 7zM133 172q6 2 8 -4q2 -5 -4 -7q-5 -2 -7 3t3 8zM91 159q-6 -2 -8 3t4 7q5 2 7 -3t-3 -7zM109 151q-6 -2 -8 4q-2 5 5 7q5 2 7 -4q2 -5 -4 -7zM128 142q-5 -2 -7 3q-2 6 4 8q5 2 7 -4q2 -5 -4 -7zM84 149
q2 -5 -3 -7t-7 3t3 7t7 -3zM144 145q6 0 6 -5q0 -6 -6 -6q-5 0 -5 6q0 5 5 5zM103 138q0 -6 -5 -6q-6 0 -6 6q0 5 6 5q5 0 5 -5zM118 125q-5 -2 -7 4q-2 5 4 7q5 2 7 -4q2 -5 -4 -7zM86 126q5 2 7 -3q2 -6 -3 -8q-6 -2 -8 3q-2 6 4 8zM137 115q-5 -2 -7 3q-1 6 3 8q6 2 8 -3
q2 -6 -4 -8zM148 111q-2 5 3 7t9 -4q2 -5 -5 -7q-5 -2 -7 4zM113 112q2 -5 -4 -7q-1 -1 -4 0.5t-4 3.5q-2 5 5 7q5 2 7 -4zM131 105q2 -5 -4 -7q-5 -2 -7 3q-2 6 4 8q5 2 7 -4zM171 109q5 2 7 -4q2 -5 -3 -7t-7 3q-2 6 3 8zM373 59q2 1 5 2l6 2q-16 19 -39 29.5t-45 9.5
t-34 -15q-10 2 -17.5 2.5t-16.5 -2.5q8 -7 11 -10t14 -10q8 -4 15 -7t14 -5q18 -5 38 -5q22 0 49 9zM150 96q1 -4 -4 -8q-5 -2 -7 4q-2 5 3 7q6 2 8 -3zM168 88q2 -5 -3 -7t-7 4q-2 5 3 7t7 -4zM115 90q5 2 7 -4q2 -5 -4 -7q-5 -2 -7 4q-2 5 4 7zM133 82q5 2 7 -3t-4 -7
q-5 -2 -7 3t4 7zM177 75q-2 5 3 7t7 -3t-3 -7t-7 3zM205 72q2 -7 -3 -9q-6 -2 -8 4t4 8q5 2 7 -3zM151 73q7 2 9 -5q3 -5 -5 -7q-5 -2 -7 4t3 8zM177 61q2 -5 -3 -7t-7 3q-2 6 3 8t7 -4zM189 55q5 2 7 -3t-3 -7t-7 3q-3 5 3 7zM208 48q5 2 7 -4q2 -5 -3 -7q-7 -2 -9 4
q-2 5 5 7zM227 39q5 2 7 -4q2 -5 -4 -7q-5 -2 -7 3q-2 6 4 8zM179 38q5 2 7 -3t-3 -7t-7 3t3 7zM244 31q6 2 8 -3q2 -6 -4 -8q-5 -2 -7 4q-2 5 3 7zM311 24q5 2 7 -4t-3 -8q-6 -2 -8 4q-2 7 4 8zM264 22q5 2 7 -5q3 -5 -3 -7q-5 -2 -7 4t3 8zM282 13q5 2 7 -3t-3 -7t-7 3
t3 7z" />
    <glyph glyph-name="tt" unicode="tt" horiz-adv-x="876" 
d="M298 660v-150h145q48 0 76.5 15t46.5 48.5t33 86.5h92v-150h134v-135h-134v-143q0 -37 15.5 -58.5t43.5 -21.5q44 0 81 22v-134q-16 -22 -50.5 -38.5t-84.5 -16.5q-47 0 -87.5 22t-65 63t-24.5 99v206h-221v-143q0 -37 15.5 -58.5t43.5 -21.5q44 0 81 22v-134
q-16 -22 -50.5 -38.5t-84.5 -16.5q-48 0 -88 22t-64.5 63t-24.5 99v206h-86v105q49 13 96.5 56.5t69.5 123.5h92z" />
    <glyph glyph-name=".notdef" horiz-adv-x="512" 
d="M51 -240h410v960h-410v-960zM102 -189v858h308v-858h-308z" />
    <glyph glyph-name=".null" horiz-adv-x="0" 
 />
    <glyph glyph-name="nonmarkingreturn" horiz-adv-x="341" 
 />
    <glyph glyph-name="NULL" horiz-adv-x="0" 
 />
    <glyph glyph-name="NULL" horiz-adv-x="0" 
 />
    <glyph glyph-name="CR" unicode="&#xd;" horiz-adv-x="300" 
 />
    <glyph glyph-name="space" unicode=" " horiz-adv-x="300" 
 />
    <glyph glyph-name="exclam" unicode="!" horiz-adv-x="340" 
d="M241 670v-430h-142v430h142zM170 161q37 0 63.5 -26t26.5 -64q0 -37 -26.5 -63.5t-63.5 -26.5t-63.5 26.5t-26.5 63.5q0 38 26.5 64t63.5 26z" />
    <glyph glyph-name="quotedbl" unicode="&#x22;" horiz-adv-x="462" 
d="M402 695v-294h-142v294h142zM202 695v-294h-142v294h142z" />
    <glyph glyph-name="numbersign" unicode="#" horiz-adv-x="850" 
d="M700 270v-130h-136l-43 -140h-128l42 140h-124l-43 -140h-128l42 140h-102v130h142l33 108h-105v140h147l46 152h131l-47 -152h123l46 152h131l-47 -152h90v-140h-133l-33 -108h96zM351 270h124l33 108h-124z" />
    <glyph glyph-name="dollar" unicode="$" horiz-adv-x="573" 
d="M226 700h117v-50q41 -5 78 -16.5t62 -28.5v-165q-39 23 -77 40t-90 17q-30 0 -52 -9t-22 -30q0 -22 26.5 -34t64.5 -26l65 -25q67 -25 94.5 -68.5t27.5 -87.5q0 -71 -50 -122.5t-127 -68.5v-70h-117v64q-44 6 -86 23t-74 40v165q44 -33 94 -54t101 -21q32 0 51.5 8
t19.5 27q0 14 -14.5 24t-39.5 17l-86 27q-51 17 -79 44.5t-39 62.5t-11 72q0 78 47.5 126t115.5 64v55z" />
    <glyph glyph-name="percent" unicode="%" horiz-adv-x="824" 
d="M561 720l113 -57l-411 -683l-110 57zM192 685q45 0 79.5 -20.5t53.5 -55.5t19 -77t-19 -77t-53.5 -55.5t-79.5 -20.5t-79.5 20.5t-53.5 55.5t-19 77t19 77t53.5 55.5t79.5 20.5zM193 578q-19 0 -32.5 -13.5t-13.5 -32.5t13.5 -33t32.5 -14t32 14t13 33t-13 32.5t-32 13.5
zM632 291q45 0 79.5 -20.5t53.5 -55.5t19 -77t-19 -77t-53.5 -55.5t-79.5 -20.5t-79.5 20.5t-53.5 55.5t-19 77t19 77t53.5 55.5t79.5 20.5zM633 184q-19 0 -32.5 -13.5t-13.5 -32.5t13.5 -33t32.5 -14t32 14t13 33t-13 32.5t-32 13.5z" />
    <glyph glyph-name="ampersand" unicode="&#x26;" horiz-adv-x="775" 
d="M337 685q65 0 115.5 -25t79.5 -65t29 -86t-24 -77.5t-58.5 -55t-67.5 -43.5q26 -30 55 -61q14 19 26.5 38t23.5 40h178q-30 -53 -61.5 -99.5t-62.5 -86.5l80 -80t85 -84h-207q-14 14 -27 27.5t-26 27.5q-37 -31 -86 -50.5t-119 -19.5q-66 0 -118 23t-82 64.5t-30 97.5
q0 46 20 80.5t52.5 60t70.5 46.5q-31 33 -50.5 69.5t-19.5 82.5t28.5 86t79 65t116.5 25zM292 492q0 -14 9.5 -30t24.5 -34q25 14 40.5 29.5t15.5 34.5q0 17 -12.5 31t-33.5 14q-22 0 -33 -14t-11 -31zM229 190q0 -28 20 -42.5t44 -14.5q25 0 44.5 7.5t37.5 22.5
q-22 23 -44.5 46.5t-46.5 48.5q-26 -16 -40.5 -31.5t-14.5 -36.5z" />
    <glyph glyph-name="quotesingle" unicode="'" horiz-adv-x="262" 
d="M202 670v-294h-142v294h142z" />
    <glyph glyph-name="parenleft" unicode="(" horiz-adv-x="403" 
d="M373 690q-30 -34 -57.5 -86t-48.5 -114t-33 -125.5t-12 -119.5q0 -60 12 -124t33 -124.5t48.5 -111.5t57.5 -85h-151q-41 43 -78 112.5t-60.5 155.5t-23.5 177q0 65 13.5 130t36.5 125t52 109t60 81h151z" />
    <glyph glyph-name="parenright" unicode=")" horiz-adv-x="413" 
d="M40 690q30 -34 57.5 -86t48.5 -114t33 -125.5t12 -119.5q0 -60 -12 -124t-33 -124.5t-48.5 -111.5t-57.5 -85h151q41 43 78 112.5t60.5 155.5t23.5 177q0 65 -13.5 130t-36.5 125t-52 109t-60 81h-151z" />
    <glyph glyph-name="asterisk" unicode="*" horiz-adv-x="498" 
d="M311 726l-5 -104l92 39l40 -119l-97 -28l69 -86l-101 -73l-60 93l-60 -93l-101 73l69 86l-97 28l40 119l92 -39l-5 104h124z" />
    <glyph glyph-name="plus" unicode="+" horiz-adv-x="550" 
d="M470 388v-150h-120v-121h-150v121h-120v150h120v120h150v-120h120z" />
    <glyph glyph-name="comma" unicode="," horiz-adv-x="284" 
d="M106 112l142 -28l-110 -237l-122 16z" />
    <glyph glyph-name="hyphen" unicode="-" horiz-adv-x="421" 
d="M361 338v-150h-301v150h301z" />
    <glyph glyph-name="period" unicode="." horiz-adv-x="252" 
d="M126 161q37 0 63.5 -26t26.5 -64q0 -37 -26.5 -63.5t-63.5 -26.5t-63.5 26.5t-26.5 63.5q0 38 26.5 64t63.5 26z" />
    <glyph glyph-name="slash" unicode="/" horiz-adv-x="474" 
d="M434 705l-266 -905h-128l263 905h131z" />
    <glyph glyph-name="zero" unicode="0" 
d="M300 685q86 0 144.5 -43.5t88.5 -122t30 -184.5t-30 -184.5t-88.5 -122t-144.5 -43.5t-144.5 43.5t-88.5 122t-30 184.5t30 184.5t88.5 122t144.5 43.5zM300 530q-37 0 -54 -48.5t-17 -146.5q0 -97 17 -146t54 -49q38 0 54.5 49t16.5 146q0 98 -16.5 146.5t-54.5 48.5z
" />
    <glyph glyph-name="one" unicode="1" 
d="M538 165v-165h-463v165h141v265q-29 -24 -66.5 -40t-69.5 -25v185q43 15 95 45t87 75h141v-505h135z" />
    <glyph glyph-name="two" unicode="2" 
d="M292 685q71 0 124.5 -27t83.5 -74t30 -108q0 -50 -11.5 -88.5t-34.5 -73.5t-57 -74t-78 -90h186v-150h-455v76q90 94 147 158t84 109.5t27 81.5q0 38 -24 61.5t-64 23.5q-42 0 -86.5 -23.5t-73.5 -57.5v190q34 29 89.5 47.5t112.5 18.5z" />
    <glyph glyph-name="three" unicode="3" 
d="M262 685q75 0 133.5 -24.5t91.5 -68t33 -100.5q0 -67 -38 -106.5t-92 -47.5q54 -10 92 -46t38 -104q0 -61 -36 -106.5t-96 -71t-131 -25.5q-49 0 -95.5 13t-74.5 34v163q34 -22 67.5 -33.5t70.5 -11.5q43 0 73 16.5t30 53.5q0 23 -15 34.5t-39.5 15t-51.5 3.5h-50v136h50
h51.5t39.5 8.5t15 32.5q0 37 -32 53.5t-71 16.5q-68 0 -123 -52v161q26 24 65.5 40t94.5 16z" />
    <glyph glyph-name="four" unicode="4" 
d="M473 670v-372h77v-150h-77v-148h-167v148h-258v130q79 89 146 181.5t138 210.5h141zM306 386q-20 -28 -31.5 -46t-30.5 -42h62v88z" />
    <glyph glyph-name="five" unicode="5" 
d="M485 670v-165h-223v-104q20 8 48 13t51 5q46 0 86 -21.5t65.5 -62.5t25.5 -100q0 -87 -37.5 -142.5t-98.5 -81.5t-132 -26q-52 0 -89 9.5t-62 23.5t-43 26v149q44 -21 78.5 -32t78.5 -11q53 0 83 12t30 49q0 31 -28 51t-80 20q-38 0 -69.5 -6t-59.5 -14v408h376z" />
    <glyph glyph-name="six" unicode="6" 
d="M477 670q-60 -58 -114.5 -113.5t-91.5 -118.5q22 14 40 17.5t36 3.5q56 0 105 -27t79.5 -77t30.5 -118q0 -76 -35.5 -133t-95 -88t-130.5 -31q-67 0 -126.5 31.5t-97 89t-37.5 136.5q0 67 22 131t56.5 120.5t72.5 101.5t69 75h217zM301 300q-32 0 -50.5 -22.5
t-18.5 -52.5t18.5 -52.5t50.5 -22.5t50.5 22.5t18.5 52.5t-18.5 52.5t-50.5 22.5z" />
    <glyph glyph-name="seven" unicode="7" 
d="M559 670v-72q-44 -90 -81.5 -163.5t-65 -141.5t-43 -138.5t-15.5 -154.5h-217q0 61 16.5 125.5t42.5 129.5t57 128.5t59 121.5h-239v165h486z" />
    <glyph glyph-name="eight" unicode="8" 
d="M300 685q61 0 111 -22t80 -64t30 -102q0 -58 -27 -93t-60 -51q27 -9 51.5 -30.5t40 -52t15.5 -68.5q0 -65 -32.5 -114t-87.5 -76t-121 -27t-120.5 27t-87.5 76t-33 114q0 38 15.5 68.5t40.5 52t51 30.5q-33 16 -60 51t-27 93q0 60 30 102t80 64t111 22zM300 534
q-25 0 -42.5 -17.5t-17.5 -49.5q0 -31 17.5 -51t42.5 -20q26 0 43 20t17 51q0 32 -17 49.5t-43 17.5zM300 282q-29 0 -47.5 -19.5t-18.5 -54.5t18.5 -53.5t47.5 -18.5t47.5 18.5t18.5 53.5t-18.5 54.5t-47.5 19.5z" />
    <glyph glyph-name="nine" unicode="9" 
d="M115 0q60 58 114.5 113.5t91.5 118.5q-22 -14 -40 -17.5t-36 -3.5q-56 0 -105 27t-79.5 77t-30.5 118q0 76 35.5 133t95 88t130.5 31q67 0 126.5 -31.5t97 -89t37.5 -136.5q0 -67 -22 -131t-56.5 -120.5t-72.5 -101.5t-69 -75h-217zM291 370q32 0 50.5 22.5t18.5 52.5
t-18.5 52.5t-50.5 22.5t-50.5 -22.5t-18.5 -52.5t18.5 -52.5t50.5 -22.5z" />
    <glyph glyph-name="colon" unicode=":" horiz-adv-x="340" 
d="M170 561q37 0 63.5 -26t26.5 -64q0 -37 -26.5 -63.5t-63.5 -26.5t-63.5 26.5t-26.5 63.5q0 38 26.5 64t63.5 26zM170 161q37 0 63.5 -26t26.5 -64q0 -37 -26.5 -63.5t-63.5 -26.5t-63.5 26.5t-26.5 63.5q0 38 26.5 64t63.5 26z" />
    <glyph glyph-name="semicolon" unicode=";" horiz-adv-x="375" 
d="M205 561q37 0 63.5 -26t26.5 -64q0 -37 -26.5 -63.5t-63.5 -26.5t-63.5 26.5t-26.5 63.5q0 38 26.5 64t63.5 26zM136 112l142 -28l-110 -237l-122 16z" />
    <glyph glyph-name="less" unicode="&#x3c;" 
d="M530 593v-178l-246 -112l246 -125v-178l-470 276v51z" />
    <glyph glyph-name="equal" unicode="=" horiz-adv-x="551" 
d="M471 493v-150h-391v150h391zM471 278v-150h-391v150h391z" />
    <glyph glyph-name="greater" unicode="&#x3e;" 
d="M60 593v-178l246 -112l-246 -125v-178l470 276v51z" />
    <glyph glyph-name="question" unicode="?" horiz-adv-x="610" 
d="M285 685q60 0 116 -24t92.5 -71.5t36.5 -119.5q0 -40 -18.5 -69t-46 -51t-54.5 -39.5t-45 -34.5t-17 -37l1 -21h-157v40q0 22 17.5 41.5t43.5 38t52.5 37.5t44 39t17.5 43q0 34 -34 53.5t-79 19.5t-92 -15.5t-83 -53.5v155q35 30 83.5 49.5t121.5 19.5zM276 161
q37 0 63.5 -26t26.5 -64q0 -37 -26.5 -63.5t-63.5 -26.5t-63.5 26.5t-26.5 63.5q0 38 26.5 64t63.5 26z" />
    <glyph glyph-name="at" unicode="@" horiz-adv-x="794" 
d="M397 612q102 0 184 -41t130 -115.5t48 -177.5q0 -59 -23.5 -106t-66 -74t-101.5 -27q-43 0 -72.5 17.5t-39.5 35.5q-27 -29 -59 -41t-67 -12q-71 0 -111.5 45.5t-32.5 131.5q6 60 35 103t71 66t86 23q35 0 60 -13.5t36 -28.5l7 29h104l-43 -173q-21 -84 35 -84
q13 0 29 8.5t28 32t12 67.5q0 84 -33.5 134t-90 72t-125.5 22q-68 0 -124.5 -31t-90.5 -89.5t-34 -142.5q0 -83 33 -137.5t89.5 -81t126.5 -26.5q56 0 93 6.5t73 22.5l46 -87q-51 -25 -102.5 -36t-109.5 -11q-102 0 -184 43t-130 122t-48 185q0 80 27.5 147.5t77 117
t115.5 77t142 27.5zM393 330q-28 0 -54 -19t-36 -63q-8 -37 9 -57.5t42 -20.5q31 0 53.5 18t35.5 74l12 52q-26 16 -62 16z" />
    <glyph glyph-name="A" unicode="A" horiz-adv-x="734" 
d="M414 680l310 -680h-218l-33 90h-212l-33 -90h-218l310 680h94zM367 378l-51 -138h102z" />
    <glyph glyph-name="B" unicode="B" horiz-adv-x="704" 
d="M359 686q83 0 144.5 -24.5t96 -68.5t34.5 -102q0 -51 -24.5 -88t-63.5 -59q31 -11 58 -28.5t43.5 -45.5t16.5 -73q0 -56 -36 -104.5t-99 -78t-144 -29.5q-46 0 -103 4.5t-108.5 11.5t-83.5 14v645q61 12 129 19t140 7zM366 517q-51 0 -89 -8v-115h94q33 0 56 16t23 47
q0 27 -23.5 43.5t-60.5 16.5zM277 162q21 -7 50 -9.5t45 -2.5q41 0 66.5 16t25.5 47q0 30 -29 43t-70 13h-88v-107z" />
    <glyph glyph-name="C" unicode="C" horiz-adv-x="612" 
d="M395 685q53 0 98 -15t79 -44v-181q-40 32 -76 48.5t-94 16.5q-45 0 -83.5 -23t-62.5 -62.5t-24 -89.5t24 -89.5t62.5 -62.5t83.5 -23q58 0 94 16.5t76 48.5v-181q-34 -29 -79 -44t-98 -15q-68 0 -131.5 23.5t-114 68.5t-80 110t-29.5 148t29.5 148t80 110t114 68.5
t131.5 23.5z" />
    <glyph glyph-name="D" unicode="D" horiz-adv-x="761" 
d="M363 686q100 0 181 -40t129 -116t48 -184q0 -74 -24.5 -139.5t-69.5 -115.5t-108 -78t-141 -28q-46 0 -97.5 3.5t-100.5 10t-90 14.5v645q64 11 135.5 19.5t137.5 8.5zM369 511q-23 0 -47.5 -3.5t-44.5 -8.5v-327q23 -7 47 -9.5t45 -2.5q51 0 86.5 23.5t54.5 63.5t19 89
q0 78 -41.5 126.5t-118.5 48.5z" />
    <glyph glyph-name="E" unicode="E" horiz-adv-x="658" 
d="M543 409v-140h-266v-109h301v-160h-488v670h488v-155h-301v-106h266z" />
    <glyph glyph-name="F" unicode="F" horiz-adv-x="635" 
d="M515 391v-165h-238v-226h-187v670h475v-165h-288v-114h238z" />
    <glyph glyph-name="G" unicode="G" horiz-adv-x="705" 
d="M480 359h160v-270q-47 -49 -108.5 -76.5t-136.5 -27.5q-68 0 -131.5 23.5t-114 68.5t-80 110t-29.5 148t29.5 148t80 110t114 68.5t131.5 23.5q53 0 98 -15t79 -44v-181q-40 32 -76 48.5t-94 16.5q-45 0 -83.5 -23t-62.5 -62.5t-24 -89.5t24 -89.5t62.5 -62.5t83.5 -23
q23 0 43 4.5t34 11.5z" />
    <glyph glyph-name="H" unicode="H" horiz-adv-x="794" 
d="M277 670v-265h240v265h187v-670h-187v240h-240v-240h-187v670h187z" />
    <glyph glyph-name="I" unicode="I" horiz-adv-x="573" 
d="M493 165v-165h-413v165h113v340h-113v165h413v-165h-113v-340h113z" />
    <glyph glyph-name="J" unicode="J" horiz-adv-x="384" 
d="M304 672v-625q0 -83 -34.5 -145t-95.5 -101t-142 -56l-62 162q147 32 147 147v618h187z" />
    <glyph glyph-name="K" unicode="K" horiz-adv-x="757" 
d="M277 670v-246l205 246h225l-242 -275l272 -395h-238l-161 252l-61 -69v-183h-187v670h187z" />
    <glyph glyph-name="L" unicode="L" horiz-adv-x="638" 
d="M277 670v-505h301v-165h-488v670h187z" />
    <glyph glyph-name="M" unicode="M" horiz-adv-x="884" 
d="M794 680v-680h-187v330l-137 -155h-56l-137 155v-330h-187v680h66l286 -290l286 290h66z" />
    <glyph glyph-name="N" unicode="N" horiz-adv-x="792" 
d="M702 670v-680h-66l-359 339v-329h-187v680h66l359 -345v335h187z" />
    <glyph glyph-name="O" unicode="O" horiz-adv-x="776" 
d="M388 685q68 0 130.5 -23.5t111.5 -68.5t77.5 -110t28.5 -148t-28.5 -148t-77.5 -110t-111.5 -68.5t-130.5 -23.5t-130.5 23.5t-111.5 68.5t-77.5 110t-28.5 148t28.5 148t77.5 110t111.5 68.5t130.5 23.5zM388 510q-45 0 -80 -23t-55.5 -62.5t-20.5 -89.5t20.5 -89.5
t55.5 -62.5t80 -23t80.5 23t55.5 62.5t20 89.5t-20 89.5t-55.5 62.5t-80.5 23z" />
    <glyph glyph-name="P" unicode="P" horiz-adv-x="670" 
d="M367 670q51 0 99.5 -17t87.5 -50t62.5 -80t23.5 -106q0 -77 -36 -132.5t-94 -84.5t-123 -29q-38 0 -68 7.5t-52 19.5v-198h-187v670h287zM267 495v-155q17 -6 36.5 -10t41.5 -4q44 0 73.5 27.5t29.5 63.5q0 41 -29.5 59.5t-73.5 18.5h-78z" />
    <glyph glyph-name="Q" unicode="Q" horiz-adv-x="815" 
d="M388 685q68 0 130.5 -23.5t111.5 -68.5t77.5 -110t28.5 -148q0 -116 -54 -196.5t-137 -119.5q43 -24 97.5 -29t112.5 -5v-156q-60 0 -128 16.5t-130.5 51.5t-108.5 88q-68 0 -130.5 23.5t-111.5 68.5t-77.5 110t-28.5 148t28.5 148t77.5 110t111.5 68.5t130.5 23.5z
M388 510q-45 0 -80 -23t-55.5 -62.5t-20.5 -89.5t20.5 -89.5t55.5 -62.5t80 -23t80.5 23t55.5 62.5t20 89.5t-20 89.5t-55.5 62.5t-80.5 23z" />
    <glyph glyph-name="R" unicode="R" horiz-adv-x="699" 
d="M377 670q51 0 99.5 -14t87.5 -43t62.5 -73t23.5 -103q0 -75 -42.5 -124t-108.5 -67l185 -246h-228l-179 266v-266h-187v670h287zM277 495v-125q17 -6 36.5 -10t41.5 -4q44 0 73.5 17.5t29.5 53.5q0 41 -29.5 54.5t-73.5 13.5h-78z" />
    <glyph glyph-name="S" unicode="S" horiz-adv-x="573" 
d="M293 685q59 0 116.5 -14.5t92.5 -38.5v-181q-43 25 -85 43.5t-99 18.5q-33 0 -57 -10t-24 -33q0 -25 29 -37.5t71 -28.5l72 -27q73 -28 103.5 -76t30.5 -96q0 -64 -37 -113.5t-100 -78t-141 -28.5q-60 0 -119 21t-103 52v181q48 -36 103.5 -59t111.5 -23q35 0 56.5 8.5
t21.5 29.5q0 15 -16 26t-43 19l-95 30q-56 18 -87 49t-43 69.5t-12 78.5q0 71 36 119.5t94 73.5t123 25z" />
    <glyph glyph-name="T" unicode="T" horiz-adv-x="631" 
d="M606 670v-165h-197v-502h-187v502h-197v165h581z" />
    <glyph glyph-name="U" unicode="U" horiz-adv-x="766" 
d="M686 672v-407q0 -87 -41 -150t-109.5 -96.5t-152.5 -33.5q-83 0 -152 33.5t-110 96.5t-41 150v407h187v-394q0 -52 28 -85.5t88 -32.5t88 33.5t28 84.5v394h187z" />
    <glyph glyph-name="V" unicode="V" horiz-adv-x="734" 
d="M724 670l-310 -680h-94l-310 680h218l139 -368l139 368h218z" />
    <glyph glyph-name="W" unicode="W" horiz-adv-x="974" 
d="M964 670l-218 -670h-141l-117 355l-117 -355h-141l-220 670h218l91 -348l104 348h128l106 -348l89 348h218z" />
    <glyph glyph-name="X" unicode="X" horiz-adv-x="726" 
d="M716 670l-225 -324l225 -346h-230l-123 200l-123 -200h-230l235 331l-235 339h230l133 -203l113 203h230z" />
    <glyph glyph-name="Y" unicode="Y" horiz-adv-x="731" 
d="M721 670l-262 -439v-231h-187v231l-262 439h218l138 -248l137 248h218z" />
    <glyph glyph-name="Z" unicode="Z" horiz-adv-x="709" 
d="M649 670v-36l-285 -469h285v-165h-589v36l284 469h-262v165h567z" />
    <glyph glyph-name="bracketleft" unicode="[" horiz-adv-x="419" 
d="M389 690v-130h-162v-630h162v-130h-319v890h319z" />
    <glyph glyph-name="backslash" unicode="\" horiz-adv-x="414" 
d="M116 670l313 -870h-128l-316 870h131z" />
    <glyph glyph-name="bracketright" unicode="]" horiz-adv-x="429" 
d="M40 690v-130h162v-630h-162v-130h319v890h-319z" />
    <glyph glyph-name="asciicircum" unicode="^" 
d="M342 670l221 -340h-168l-100 148l-87 -148h-168l211 340h91z" />
    <glyph glyph-name="underscore" unicode="_" horiz-adv-x="490" 
d="M490 -1v-150h-490v150h490z" />
    <glyph glyph-name="grave" unicode="`" horiz-adv-x="414" 
d="M234 710l100 -150h-122l-132 150h154z" />
    <glyph glyph-name="a" unicode="a" horiz-adv-x="649" 
d="M265 525q40 0 78.5 -17.5t63.5 -44.5v47h172v-510h-172v85q-19 -42 -58 -71t-94 -29q-57 0 -107 29t-81.5 89.5t-31.5 152.5q0 86 31.5 146t84 91.5t114.5 31.5zM301 357q-37 0 -61.5 -30t-24.5 -71t25 -69t66 -28q22 0 45 11.5t39.5 35t16.5 60.5v49q-22 18 -49.5 30
t-56.5 12z" />
    <glyph glyph-name="b" unicode="b" horiz-adv-x="649" 
d="M384 525q62 0 114.5 -31.5t84 -91.5t31.5 -146q0 -92 -31 -152.5t-81.5 -89.5t-107.5 -29q-55 0 -94 29t-58 71v-85h-172v720h172v-257q25 27 63.5 44.5t78.5 17.5zM348 357q-28 0 -55.5 -12t-50.5 -30v-49q0 -37 16.5 -60.5t40 -35t44.5 -11.5q41 0 66 28t25 69t-24 71
t-62 30z" />
    <glyph glyph-name="c" unicode="c" horiz-adv-x="472" 
d="M304 525q59 0 90.5 -18.5t57.5 -38.5v-150q-23 17 -52.5 27t-72.5 10q-23 0 -48 -12t-42 -34.5t-17 -56.5q0 -50 32 -76t75 -26t72.5 10.5t52.5 26.5v-150q-26 -20 -57.5 -36t-90.5 -16q-57 0 -106 21.5t-85.5 59t-57 85.5t-20.5 101t20.5 102t57 87.5t85.5 61t106 22.5z
" />
    <glyph glyph-name="d" unicode="d" horiz-adv-x="649" 
d="M579 720v-720h-172v85q-19 -42 -58 -71t-94 -29q-57 0 -107 29t-81.5 89.5t-31.5 152.5q0 86 31.5 146t84 91.5t114.5 31.5q40 0 78.5 -17.5t63.5 -44.5v257h172zM301 357q-37 0 -61.5 -30t-24.5 -71t25 -69t66 -28q22 0 45 11.5t39.5 35t16.5 60.5v49q-22 18 -49.5 30
t-56.5 12z" />
    <glyph glyph-name="e" unicode="e" horiz-adv-x="578" 
d="M306 525q72 0 128 -32t87.5 -89.5t31.5 -136.5v-59h-347q11 -37 44 -55t76 -18q58 0 100.5 16.5t63.5 28.5v-147q-26 -16 -71.5 -32t-102.5 -16q-54 0 -104.5 18t-90.5 52t-63 82.5t-23 109.5q0 76 35.5 139t97 101t138.5 38zM301 383q-33 0 -57 -17.5t-35 -53.5h181
q0 36 -27.5 53.5t-61.5 17.5z" />
    <glyph glyph-name="f" unicode="f" horiz-adv-x="433" 
d="M404 510v-135h-116v-375h-172v375h-76v135h76v26q0 58 26 102.5t71 70.5t102 26q38 0 65.5 -7t47.5 -18v-140q-31 17 -75 17q-23 0 -44 -14.5t-21 -43.5v-19h116z" />
    <glyph glyph-name="g" unicode="g" horiz-adv-x="649" 
d="M265 525q40 0 78.5 -17.5t63.5 -44.5v47h172v-495q0 -81 -40 -141.5t-106 -94.5t-145 -34q-64 0 -111 17.5t-94 48.5v152q32 -18 58.5 -32t57.5 -22.5t73 -8.5q62 0 98.5 35t36.5 79v71q-19 -42 -58 -71t-94 -29q-57 0 -107 29t-81.5 89.5t-31.5 152.5q0 86 31.5 146
t84 91.5t114.5 31.5zM301 357q-37 0 -61.5 -30t-24.5 -71t25 -69t66 -28q22 0 45 11.5t39.5 35t16.5 60.5v49q-22 18 -49.5 30t-56.5 12z" />
    <glyph glyph-name="h" unicode="h" horiz-adv-x="628" 
d="M386 525q78 0 127.5 -53t49.5 -157v-315h-172l-1 288q0 38 -21 53.5t-47 15.5q-28 0 -47 -14.5t-33 -34.5v-308h-172v720h172v-276q24 33 58.5 57t85.5 24z" />
    <glyph glyph-name="i" unicode="i" horiz-adv-x="371" 
d="M203 796q29 0 53.5 -14t39.5 -37.5t15 -52.5q0 -28 -15 -52t-39.5 -38t-53.5 -14q-43 0 -75 30.5t-32 73.5q0 44 32 74t75 30zM300 510v-510h-172v370h-83v140h255z" />
    <glyph glyph-name="j" unicode="j" horiz-adv-x="382" 
d="M204 796q29 0 53.5 -14t39.5 -37.5t15 -52.5q0 -28 -15 -52t-39.5 -38t-53.5 -14t-53.5 14t-39.5 38t-15 52q0 44 32.5 74t75.5 30zM295 510v-501q0 -104 -47.5 -169t-141.5 -95l-75 147q39 17 65.5 46t26.5 73v359h-83v140h255z" />
    <glyph glyph-name="k" unicode="k" horiz-adv-x="627" 
d="M242 720v-415l163 205h208l-206 -220l215 -290h-217l-108 172l-55 -58v-114h-172v720h172z" />
    <glyph glyph-name="l" unicode="l" horiz-adv-x="312" 
d="M242 720v-720h-172v720h172z" />
    <glyph glyph-name="m" unicode="m" horiz-adv-x="919" 
d="M242 510v-66q24 33 51 57t78 24t91 -23.5t63 -69.5q24 40 63.5 66.5t88.5 26.5q78 0 127.5 -53t49.5 -157v-315h-172l-1 288q0 38 -19.5 53.5t-45.5 15.5q-23 0 -39.5 -14t-28.5 -32v-311h-172l-1 288q0 38 -19.5 53.5t-45.5 15.5q-23 0 -38.5 -14.5t-29.5 -34.5v-308
h-172v510h172z" />
    <glyph glyph-name="n" unicode="n" horiz-adv-x="628" 
d="M242 510v-66q24 33 58.5 57t85.5 24q78 0 127.5 -53t49.5 -157v-315h-172l-1 288q0 38 -21 53.5t-47 15.5q-28 0 -47 -14.5t-33 -34.5v-308h-172v510h172z" />
    <glyph glyph-name="o" unicode="o" horiz-adv-x="630" 
d="M315 525q53 0 103 -20t90 -56t63.5 -85.5t23.5 -108.5t-23.5 -108.5t-63.5 -85.5t-90 -56t-103 -20t-103 20t-90 56t-63.5 85.5t-23.5 108.5t23.5 108.5t63.5 85.5t90 56t103 20zM315 360q-18 0 -40.5 -8t-38.5 -30.5t-16 -66.5q0 -43 16 -66t38.5 -31t40.5 -8q19 0 41 8
t38 31t16 66q0 44 -16 66.5t-38 30.5t-41 8z" />
    <glyph glyph-name="p" unicode="p" horiz-adv-x="649" 
d="M394 525q57 0 107.5 -29t81.5 -89t31 -153q0 -86 -31.5 -146t-84 -91.5t-114.5 -31.5q-40 0 -78.5 17.5t-63.5 44.5v-287h-172v750h172v-85q19 42 58 71t94 29zM343 351q-21 0 -44.5 -11.5t-40 -35t-16.5 -60.5v-49q23 -18 50.5 -30t55.5 -12q38 0 62 30.5t24 70.5
q0 41 -25 69t-66 28z" />
    <glyph glyph-name="q" unicode="q" horiz-adv-x="649" 
d="M265 525q40 0 78.5 -17.5t63.5 -44.5v47h172v-750h-172v325q-19 -42 -58 -71t-94 -29q-57 0 -107 29t-81.5 89.5t-31.5 152.5q0 86 31.5 146t84 91.5t114.5 31.5zM301 357q-37 0 -61.5 -30t-24.5 -71t25 -69t66 -28q22 0 45 11.5t39.5 35t16.5 60.5v49q-22 18 -49.5 30
t-56.5 12z" />
    <glyph glyph-name="r" unicode="r" horiz-adv-x="438" 
d="M418 321q-15 8 -31.5 12.5t-38.5 4.5q-35 0 -62 -21t-44 -55v-262h-172v510h172v-91q24 41 53.5 71t77.5 30q26 0 45 -9v-190z" />
    <glyph glyph-name="s" unicode="s" horiz-adv-x="456" 
d="M248 525q50 0 92.5 -14.5t68.5 -39.5v-135q-26 16 -59 30.5t-71 14.5q-24 0 -42.5 -9.5t-18.5 -29.5q0 -14 11 -21t43 -15l31 -8q133 -34 133 -143q0 -50 -29.5 -88.5t-77 -60t-102.5 -21.5q-57 0 -106 16.5t-84 40.5v134q36 -22 81.5 -37t81.5 -15q29 0 42.5 7t13.5 25
q0 14 -16 21.5t-46 17.5l-51 16q-56 17 -82 53.5t-26 89.5t28 91t76.5 59t108.5 21z" />
    <glyph glyph-name="t" unicode="t" horiz-adv-x="483" 
d="M298 660v-150h134v-135h-134v-143q0 -37 15.5 -58.5t43.5 -21.5q44 0 81 22v-134q-16 -22 -50.5 -38.5t-84.5 -16.5q-48 0 -88 22t-64.5 63t-24.5 99v206h-86v105q49 13 96.5 56.5t69.5 123.5h92z" />
    <glyph glyph-name="u" unicode="u" horiz-adv-x="618" 
d="M553 510v-306q0 -69 -31.5 -118t-86.5 -75t-126 -26t-126 26t-86.5 75t-31.5 118v306h172l1 -260q0 -52 16.5 -76t54.5 -24t54.5 24t16.5 76l1 260h172z" />
    <glyph glyph-name="v" unicode="v" horiz-adv-x="611" 
d="M606 510l-244 -510h-111l-246 510h198l103 -258l102 258h198z" />
    <glyph glyph-name="w" unicode="w" horiz-adv-x="824" 
d="M819 510l-175 -510h-133l-99 301l-99 -301h-135l-173 510h178l75 -248l86 248h136l86 -248l75 248h178z" />
    <glyph glyph-name="x" unicode="x" horiz-adv-x="626" 
d="M611 510l-190 -254l200 -256h-212l-96 144l-96 -144h-212l200 256l-190 254h195l103 -145l103 145h195z" />
    <glyph glyph-name="y" unicode="y" horiz-adv-x="622" 
d="M203 510l113 -271l109 271h192l-366 -750h-192l161 284l-215 466h198z" />
    <glyph glyph-name="z" unicode="z" horiz-adv-x="564" 
d="M509 510v-36l-221 -334h231v-140h-469v36l210 334h-200v140h449z" />
    <glyph glyph-name="braceleft" unicode="{" horiz-adv-x="494" 
d="M454 690v-130h-44q-43 0 -64 -14.5t-27.5 -36.5t-6.5 -44v-125q0 -31 -18 -55.5t-47 -39.5q29 -15 47 -39t18 -56v-125q0 -22 6.5 -44t27.5 -36.5t64 -14.5h44v-130h-124q-52 0 -91.5 24.5t-61.5 66t-22 91.5v106q0 45 -14 63.5t-61 18.5v150q47 0 61 18.5t14 63.5v106
q0 51 22 92t61.5 65.5t91.5 24.5h124z" />
    <glyph glyph-name="bar" unicode="|" horiz-adv-x="290" 
d="M210 705v-905h-130v905h130z" />
    <glyph glyph-name="braceright" unicode="}" horiz-adv-x="494" 
d="M40 690v-130h44q43 0 64 -14.5t27.5 -36.5t6.5 -44v-125q0 -31 18 -55.5t47 -39.5q-29 -15 -47 -39t-18 -56v-125q0 -22 -6.5 -44t-27.5 -36.5t-64 -14.5h-44v-130h124q52 0 91.5 24.5t61.5 66t22 91.5v106q0 45 14 63.5t61 18.5v150q-47 0 -61 18.5t-14 63.5v106
q0 51 -22 92t-61.5 65.5t-91.5 24.5h-124z" />
    <glyph glyph-name="asciitilde" unicode="~" horiz-adv-x="614" 
d="M554 446q0 -82 -43 -133.5t-113 -51.5q-33 0 -57 9.5t-43 21.5t-36 21.5t-36 9.5q-21 0 -32.5 -16.5t-11.5 -39.5h-122q0 83 43 134t113 51q33 0 57 -9.5t43 -21.5t36 -21.5t36 -9.5q22 0 33 17t11 39h122z" />
    <glyph glyph-name="uni00A0" unicode="&#xa0;" horiz-adv-x="300" 
 />
    <glyph glyph-name="exclamdown" unicode="&#xa1;" horiz-adv-x="340" 
d="M241 -164v430h-142v-430h142zM170 345q37 0 63.5 26t26.5 64q0 37 -26.5 63.5t-63.5 26.5t-63.5 -26.5t-26.5 -63.5q0 -38 26.5 -64t63.5 -26z" />
    <glyph glyph-name="cent" unicode="&#xa2;" horiz-adv-x="472" 
d="M380 580v-67q23 -9 39.5 -21t32.5 -24v-150q-15 11 -32.5 19t-39.5 13v-195q22 5 39.5 13t32.5 19v-150q-16 -12 -32.5 -23t-39.5 -18v-76h-117v68q-66 10 -117.5 48.5t-81 95t-29.5 120.5t29.5 122t81 97.5t117.5 50.5v58h117zM220 252q0 -30 12 -51t31 -33v166
q-18 -13 -30.5 -33.5t-12.5 -48.5z" />
    <glyph glyph-name="sterling" unicode="&#xa3;" horiz-adv-x="578" 
d="M458 390v-130h-121v-7q0 -30 -13 -52t-34 -36h220v-165h-440v135q32 11 56 36t24 63v26h-80v130h80v49q0 80 35 133.5t89.5 80.5t112.5 27q43 0 79 -12.5t52 -28.5v-166q-18 14 -43 23.5t-54 8.5t-56.5 -24.5t-27.5 -67.5v-23h121z" />
    <glyph glyph-name="currency" unicode="&#xa4;" horiz-adv-x="526" 
d="M263 441q43 0 83 -19l63 63l82 -79l-60 -62q23 -40 23 -87t-23 -87l60 -62l-83 -79l-63 63q-39 -19 -82 -19t-82 19l-63 -63l-83 79l60 62q-23 40 -23 87t23 88l-60 62l83 78l63 -63q39 19 82 19zM263 319q-26 0 -45.5 -16.5t-19.5 -45.5t19.5 -45.5t45.5 -16.5
t45.5 16.5t19.5 45.5t-19.5 45.5t-45.5 16.5z" />
    <glyph glyph-name="yen" unicode="&#xa5;" horiz-adv-x="731" 
d="M591 196v-90h-132v-106h-187v106h-131v90h131v35v0h-131v90h77l-208 349h218l138 -248l137 248h218l-208 -349h78v-90h-132v0v-35h132z" />
    <glyph glyph-name="brokenbar" unicode="&#xa6;" horiz-adv-x="290" 
d="M210 705v-416h-130v416h130zM210 216v-416h-130v416h130z" />
    <glyph glyph-name="section" unicode="&#xa7;" horiz-adv-x="573" 
d="M543 -5q0 -64 -37 -113.5t-100 -78t-141 -28.5q-60 0 -119 21t-103 52v181q48 -36 103.5 -59t111.5 -23q35 0 56.5 8.5t21.5 29.5q0 15 -16 26t-43 19l-95 30q-56 18 -87 46.5t-43 64.5t-12 76q0 35 12.5 59t30.5 41q-25 24 -34 54t-9 66q0 71 36 119.5t94 73.5t123 25
q59 0 116.5 -14.5t92.5 -38.5v-181q-43 25 -85 43.5t-99 18.5q-33 0 -57 -10t-24 -33q0 -25 29 -37.5t71 -28.5l72 -27q73 -28 103.5 -71t30.5 -91q0 -39 -11 -68t-33 -52q23 -21 33.5 -46.5t10.5 -53.5zM237 245q0 -24 27.5 -39t65.5 -29q6 7 6 18q0 23 -16 37t-43 24
l-34 12q-6 -11 -6 -23z" />
    <glyph glyph-name="dieresis" unicode="&#xa8;" horiz-adv-x="522" 
d="M372 725q31 0 53.5 -22t22.5 -54q0 -31 -22.5 -53.5t-53.5 -22.5t-53.5 22.5t-22.5 53.5q0 32 22.5 54t53.5 22zM162 725q31 0 53.5 -22t22.5 -54q0 -31 -22.5 -53.5t-53.5 -22.5t-53.5 22.5t-22.5 53.5q0 32 22.5 54t53.5 22z" />
    <glyph glyph-name="copyright" unicode="&#xa9;" horiz-adv-x="864" 
d="M432 723q84 0 155.5 -30.5t124.5 -84t82.5 -123.5t29.5 -150t-29.5 -150t-82.5 -123.5t-124.5 -84t-155.5 -30.5t-155.5 30.5t-124.5 84t-82.5 123.5t-29.5 150t29.5 150t82.5 123.5t124.5 84t155.5 30.5zM432 620q-84 0 -147 -36t-98.5 -100.5t-35.5 -148.5t35.5 -148.5
t98.5 -100.5t147 -36t147.5 36t98.5 100.5t35 148.5t-35 148.5t-98.5 100.5t-147.5 36zM456 557q47 0 73 -15t47 -31v-122q-19 14 -43 22t-58 8q-20 0 -40 -9.5t-33.5 -28t-13.5 -45.5q0 -41 26 -62t61 -21q34 0 58 8t43 22v-122q-21 -16 -47 -29t-73 -13q-62 0 -111.5 30
t-78.5 79.5t-29 107.5q0 57 29 108t78.5 82t111.5 31z" />
    <glyph glyph-name="ordfeminine" unicode="&#xaa;" horiz-adv-x="395" 
d="M172 685q24 0 47 -10.5t38 -26.5v28h103v-303h-103v49q-11 -25 -34.5 -41.5t-56.5 -16.5q-34 0 -64 17t-48.5 53t-18.5 91q0 77 41 118.5t96 41.5zM194 585q-22 0 -37 -18t-15 -42q0 -25 15 -41.5t40 -16.5q19 0 39.5 15t20.5 48v30q-13 11 -29.5 18t-33.5 7z" />
    <glyph glyph-name="guillemotleft" unicode="&#xab;" horiz-adv-x="555" 
d="M265 32l-235 195v38l235 203v-153l-80 -67l80 -63v-153zM495 32l-235 195v38l235 203v-153l-80 -67l80 -63v-153z" />
    <glyph glyph-name="logicalnot" unicode="&#xac;" 
d="M451 388v-255h-142v105h-229v150h371z" />
    <glyph glyph-name="uni00AD" unicode="&#xad;" horiz-adv-x="421" 
d="M361 338v-150h-301v150h301z" />
    <glyph glyph-name="registered" unicode="&#xae;" horiz-adv-x="864" 
d="M432 723q84 0 155.5 -30.5t124.5 -84t82.5 -123.5t29.5 -150t-29.5 -150t-82.5 -123.5t-124.5 -84t-155.5 -30.5t-155.5 30.5t-124.5 84t-82.5 123.5t-29.5 150t29.5 150t82.5 123.5t124.5 84t155.5 30.5zM467 533q40 0 77 -15t60.5 -45.5t23.5 -77.5q0 -44 -25 -73.5
t-64 -39.5l106 -142q33 37 50.5 86.5t17.5 108.5q0 84 -35 148.5t-98.5 100.5t-147.5 36t-147 -36t-98.5 -100.5t-35.5 -148.5t35.5 -148.5t98.5 -100.5t147 -36q66 0 119.5 22.5t90.5 63.5h-129l-106 158v-158h-111v397h171zM407 430v-75q10 -3 22 -5.5t25 -2.5
q26 0 43.5 10.5t17.5 31.5q0 25 -17.5 33t-43.5 8h-47z" />
    <glyph glyph-name="macron" unicode="&#xaf;" horiz-adv-x="570" 
d="M470 710v-110h-370v110h370z" />
    <glyph glyph-name="degree" unicode="&#xb0;" horiz-adv-x="413" 
d="M207 685q50 0 88.5 -23.5t60.5 -62.5t22 -86t-22 -86.5t-60.5 -63t-88.5 -23.5t-89 23.5t-61 63t-22 86.5t22 86t61 62.5t89 23.5zM207 565q-22 0 -37 -16t-15 -36q0 -22 15 -38t37 -16q21 0 36 16t15 38q0 20 -15 36t-36 16z" />
    <glyph glyph-name="plusminus" unicode="&#xb1;" horiz-adv-x="531" 
d="M330 510v-100h120v-130h-120v-101h-130v101h-120v130h120v100h130zM451 130v-130h-371v130h371z" />
    <glyph glyph-name="uni00B2" unicode="&#xb2;" horiz-adv-x="282" 
d="M134 677q48 0 77 -26t29 -67q0 -30 -9 -51t-27 -42t-44 -51h82v-67h-202v34q60 62 87.5 96t27.5 58q0 17 -11 27.5t-28 10.5q-19 0 -38.5 -10.5t-32.5 -25.5v85q15 12 39.5 20.5t49.5 8.5z" />
    <glyph glyph-name="uni00B3" unicode="&#xb3;" horiz-adv-x="271" 
d="M118 675q49 0 81 -23.5t32 -61.5q0 -30 -16.5 -47.5t-40.5 -20.5q24 -4 40.5 -20t16.5 -46q0 -40 -34.5 -65t-81.5 -25t-75 21v72q15 -10 30 -15t31 -5q19 0 32.5 7.5t13.5 23.5q0 15 -14.5 19t-32.5 4h-22v61h22q18 0 32.5 0.5t14.5 17.5q0 16 -14 23t-32 7
q-30 0 -54 -22v71q12 10 29 17t42 7z" />
    <glyph glyph-name="acute" unicode="&#xb4;" horiz-adv-x="364" 
d="M334 710l-132 -150h-122l100 150h154z" />
    <glyph glyph-name="uni00B5" unicode="&#xb5;" horiz-adv-x="618" 
d="M553 510v-510h-172v44q-4 -34 -24 -46.5t-48 -12.5t-48 12.5t-24 45.5v-283h-172v750h172l1 -260q0 -52 16.5 -76t54.5 -24t54.5 24t16.5 76l1 260h172z" />
    <glyph glyph-name="paragraph" unicode="&#xb6;" horiz-adv-x="660" 
d="M570 -210h-92v754h-50v-754h-95v442h-50q-66 0 -124 22.5t-93.5 71t-35.5 125.5q0 79 35.5 127t93.5 70t124 22h287v-880z" />
    <glyph glyph-name="periodcentered" unicode="&#xb7;" horiz-adv-x="340" 
d="M170 442q37 0 63.5 -26t26.5 -64q0 -37 -26.5 -63.5t-63.5 -26.5t-63.5 26.5t-26.5 63.5q0 38 26.5 64t63.5 26z" />
    <glyph glyph-name="cedilla" unicode="&#xb8;" horiz-adv-x="348" 
d="M191 2l-3 -48q41 2 65.5 -23t24.5 -62q0 -51 -33 -80t-85 -29q-15 0 -39.5 6t-40.5 19l7 74q16 -8 32 -17t38 -9q10 0 21 6.5t11 19.5q0 12 -9.5 18t-20.5 6q-13 0 -30 -9l-24 12l12 116h74z" />
    <glyph glyph-name="uni00B9" unicode="&#xb9;" horiz-adv-x="285" 
d="M245 446v-73h-205v73h63v118q-13 -11 -30 -18t-31 -11v82q19 6 42.5 19.5t38.5 33.5h63v-224h59z" />
    <glyph glyph-name="ordmasculine" unicode="&#xba;" horiz-adv-x="394" 
d="M197 677q41 0 78 -20t60.5 -55t23.5 -81q0 -45 -23.5 -80.5t-60.5 -56t-78 -20.5t-78 20.5t-60.5 56t-23.5 80.5q0 46 23.5 81t60.5 55t78 20zM197 581q-10 0 -23 -4.5t-22.5 -17.5t-9.5 -38t9.5 -38.5t22.5 -18t23 -4.5q17 0 36 11.5t19 49.5t-19 49t-36 11z" />
    <glyph glyph-name="guillemotright" unicode="&#xbb;" horiz-adv-x="555" 
d="M290 468l235 -195v-38l-235 -203v153l80 67l-80 63v153zM60 468l235 -195v-38l-235 -203v153l80 67l-80 63v153z" />
    <glyph glyph-name="onequarter" unicode="&#xbc;" horiz-adv-x="662" 
d="M250 446v-73h-205v73h63v118q-13 -11 -30 -18t-31 -11v82q19 6 42.5 19.5t38.5 33.5h63v-224h59zM632 670l-464 -670h-118l461 670h121zM548 297v-165h34v-66h-34v-66h-74v66h-115v57q35 40 65 81t61 93h63zM474 171q-9 -13 -14.5 -20.5t-13.5 -18.5h28v39z" />
    <glyph glyph-name="onehalf" unicode="&#xbd;" horiz-adv-x="682" 
d="M245 446v-73h-205v73h63v118q-13 -11 -30 -18t-31 -11v82q19 6 42.5 19.5t38.5 33.5h63v-224h59zM631 670l-464 -670h-118l461 670h121zM518 304q48 0 77 -26t29 -67q0 -30 -9 -51t-27 -42t-44 -51h82v-67h-202v34q60 62 87.5 96t27.5 58q0 17 -11 27.5t-28 10.5
q-19 0 -38.5 -10.5t-32.5 -25.5v85q15 12 39.5 20.5t49.5 8.5z" />
    <glyph glyph-name="threequarters" unicode="&#xbe;" horiz-adv-x="663" 
d="M118 675q49 0 81 -23.5t32 -61.5q0 -30 -16.5 -47.5t-40.5 -20.5q24 -4 40.5 -20t16.5 -46q0 -40 -34.5 -65t-81.5 -25t-75 21v72q15 -10 30 -15t31 -5q19 0 32.5 7.5t13.5 23.5q0 15 -14.5 19t-32.5 4h-22v61h22q18 0 32.5 0.5t14.5 17.5q0 16 -14 23t-32 7
q-30 0 -54 -22v71q12 10 29 17t42 7zM623 670l-464 -670h-118l461 670h121zM543 297v-165h34v-66h-34v-66h-74v66h-115v57q35 40 65 81t61 93h63zM469 171q-9 -13 -14.5 -20.5t-13.5 -18.5h28v39z" />
    <glyph glyph-name="questiondown" unicode="&#xbf;" horiz-adv-x="610" 
d="M325 -179q-60 0 -116 24t-92.5 71.5t-36.5 119.5q0 40 18.5 69t46 51t54.5 39.5t45 34.5t17 37l-1 21h157v-40q0 -22 -17.5 -41.5t-43.5 -38t-52.5 -37.5t-44 -39t-17.5 -43q0 -34 34 -53.5t79 -19.5t92 15.5t83 53.5v-155q-35 -30 -83.5 -49.5t-121.5 -19.5zM334 345
q-37 0 -63.5 26t-26.5 64q0 37 26.5 63.5t63.5 26.5t63.5 -26.5t26.5 -63.5q0 -38 -26.5 -64t-63.5 -26z" />
    <glyph glyph-name="Agrave" unicode="&#xc0;" horiz-adv-x="734" 
d="M414 680l310 -680h-218l-33 90h-212l-33 -90h-218l310 680h94zM367 378l-51 -138h102zM329 870l100 -150h-122l-132 150h154z" />
    <glyph glyph-name="Aacute" unicode="&#xc1;" horiz-adv-x="734" 
d="M414 680l310 -680h-218l-33 90h-212l-33 -90h-218l310 680h94zM367 378l-51 -138h102zM535 870l-132 -150h-122l100 150h154z" />
    <glyph glyph-name="Acircumflex" unicode="&#xc2;" horiz-adv-x="734" 
d="M414 680l310 -680h-218l-33 90h-212l-33 -90h-218l310 680h94zM367 378l-51 -138h102zM417 870l120 -150h-132l-40 59l-40 -59h-132l120 150h104z" />
    <glyph glyph-name="Atilde" unicode="&#xc3;" horiz-adv-x="734" 
d="M414 680l310 -680h-218l-33 90h-212l-33 -90h-218l310 680h94zM367 378l-51 -138h102zM556 845q0 -70 -37.5 -104.5t-90.5 -34.5q-33 0 -53.5 10.5t-35 20.5t-28.5 10q-33 0 -33 -37h-94q0 70 38 104.5t90 34.5q33 0 53.5 -10t35 -20.5t28.5 -10.5q33 0 33 37h94z" />
    <glyph glyph-name="Adieresis" unicode="&#xc4;" horiz-adv-x="734" 
d="M414 680l310 -680h-218l-33 90h-212l-33 -90h-218l310 680h94zM367 378l-51 -138h102zM470 885q31 0 53.5 -22t22.5 -54q0 -31 -22.5 -53.5t-53.5 -22.5t-53.5 22.5t-22.5 53.5q0 32 22.5 54t53.5 22zM260 885q31 0 53.5 -22t22.5 -54q0 -31 -22.5 -53.5t-53.5 -22.5
t-53.5 22.5t-22.5 53.5q0 32 22.5 54t53.5 22z" />
    <glyph glyph-name="Aring" unicode="&#xc5;" horiz-adv-x="734" 
d="M414 680l310 -680h-218l-33 90h-212l-33 -90h-218l310 680h94zM367 378l-51 -138h102zM365 893q40 0 68 -26.5t28 -64.5t-28 -64.5t-68 -26.5t-68.5 26.5t-28.5 64.5t28.5 64.5t68.5 26.5zM365 838q-16 0 -27.5 -10.5t-11.5 -25.5q0 -16 11.5 -26t27.5 -10q15 0 26.5 10
t11.5 26q0 15 -11.5 25.5t-26.5 10.5z" />
    <glyph glyph-name="AE" unicode="&#xc6;" horiz-adv-x="1081" 
d="M966 409v-140h-266v-109h301v-160h-488v133h-222l-93 -133h-188l473 670h518v-155h-301v-106h266zM386 270h127v182z" />
    <glyph glyph-name="Ccedilla" unicode="&#xc7;" horiz-adv-x="612" 
d="M395 685q53 0 98 -15t79 -44v-181q-40 32 -76 48.5t-94 16.5q-45 0 -83.5 -23t-62.5 -62.5t-24 -89.5t24 -89.5t62.5 -62.5t83.5 -23q58 0 94 16.5t76 48.5v-181q-34 -29 -79 -44t-98 -15q-68 0 -131.5 23.5t-114 68.5t-80 110t-29.5 148t29.5 148t80 110t114 68.5
t131.5 23.5zM402 2l-3 -48q41 2 65.5 -23t24.5 -62q0 -51 -33 -80t-85 -29q-15 0 -39.5 6t-40.5 19l7 74q16 -8 32 -17t38 -9q10 0 21 6.5t11 19.5q0 12 -9.5 18t-20.5 6q-13 0 -30 -9l-24 12l12 116h74z" />
    <glyph glyph-name="Egrave" unicode="&#xc8;" horiz-adv-x="658" 
d="M543 409v-140h-266v-109h301v-160h-488v670h488v-155h-301v-106h266zM298 870l100 -150h-122l-132 150h154z" />
    <glyph glyph-name="Eacute" unicode="&#xc9;" horiz-adv-x="658" 
d="M543 409v-140h-266v-109h301v-160h-488v670h488v-155h-301v-106h266zM504 870l-132 -150h-122l100 150h154z" />
    <glyph glyph-name="Ecircumflex" unicode="&#xca;" horiz-adv-x="658" 
d="M543 409v-140h-266v-109h301v-160h-488v670h488v-155h-301v-106h266zM386 870l120 -150h-132l-40 59l-40 -59h-132l120 150h104z" />
    <glyph glyph-name="Edieresis" unicode="&#xcb;" horiz-adv-x="658" 
d="M543 409v-140h-266v-109h301v-160h-488v670h488v-155h-301v-106h266zM439 885q31 0 53.5 -22t22.5 -54q0 -31 -22.5 -53.5t-53.5 -22.5t-53.5 22.5t-22.5 53.5q0 32 22.5 54t53.5 22zM229 885q31 0 53.5 -22t22.5 -54q0 -31 -22.5 -53.5t-53.5 -22.5t-53.5 22.5
t-22.5 53.5q0 32 22.5 54t53.5 22z" />
    <glyph glyph-name="Igrave" unicode="&#xcc;" horiz-adv-x="573" 
d="M493 165v-165h-413v165h113v340h-113v165h413v-165h-113v-340h113zM251 870l100 -150h-122l-132 150h154z" />
    <glyph glyph-name="Iacute" unicode="&#xcd;" horiz-adv-x="573" 
d="M493 165v-165h-413v165h113v340h-113v165h413v-165h-113v-340h113zM457 870l-132 -150h-122l100 150h154z" />
    <glyph glyph-name="Icircumflex" unicode="&#xce;" horiz-adv-x="573" 
d="M493 165v-165h-413v165h113v340h-113v165h413v-165h-113v-340h113zM339 870l120 -150h-132l-40 59l-40 -59h-132l120 150h104z" />
    <glyph glyph-name="Idieresis" unicode="&#xcf;" horiz-adv-x="573" 
d="M493 165v-165h-413v165h113v340h-113v165h413v-165h-113v-340h113zM392 885q31 0 53.5 -22t22.5 -54q0 -31 -22.5 -53.5t-53.5 -22.5t-53.5 22.5t-22.5 53.5q0 32 22.5 54t53.5 22zM182 885q31 0 53.5 -22t22.5 -54q0 -31 -22.5 -53.5t-53.5 -22.5t-53.5 22.5t-22.5 53.5
q0 32 22.5 54t53.5 22z" />
    <glyph glyph-name="Eth" unicode="&#xd0;" horiz-adv-x="761" 
d="M363 686q100 0 181 -40t129 -116t48 -184q0 -74 -24.5 -139.5t-69.5 -115.5t-108 -78t-141 -28q-46 0 -97.5 3.5t-100.5 10t-90 14.5v645q64 11 135.5 19.5t137.5 8.5zM369 511q-23 0 -47.5 -3.5t-44.5 -8.5v-327q23 -7 47 -9.5t45 -2.5q51 0 86.5 23.5t54.5 63.5t19 89
q0 78 -41.5 126.5t-118.5 48.5zM327 411v-150h-301v150h301z" />
    <glyph glyph-name="Ntilde" unicode="&#xd1;" horiz-adv-x="792" 
d="M702 670v-680h-66l-359 339v-329h-187v680h66l359 -345v335h187zM587 845q0 -70 -37.5 -104.5t-90.5 -34.5q-33 0 -53.5 10.5t-35 20.5t-28.5 10q-33 0 -33 -37h-94q0 70 38 104.5t90 34.5q33 0 53.5 -10t35 -20.5t28.5 -10.5q33 0 33 37h94z" />
    <glyph glyph-name="Ograve" unicode="&#xd2;" horiz-adv-x="776" 
d="M388 685q68 0 130.5 -23.5t111.5 -68.5t77.5 -110t28.5 -148t-28.5 -148t-77.5 -110t-111.5 -68.5t-130.5 -23.5t-130.5 23.5t-111.5 68.5t-77.5 110t-28.5 148t28.5 148t77.5 110t111.5 68.5t130.5 23.5zM388 510q-45 0 -80 -23t-55.5 -62.5t-20.5 -89.5t20.5 -89.5
t55.5 -62.5t80 -23t80.5 23t55.5 62.5t20 89.5t-20 89.5t-55.5 62.5t-80.5 23zM352 870l100 -150h-122l-132 150h154z" />
    <glyph glyph-name="Oacute" unicode="&#xd3;" horiz-adv-x="776" 
d="M388 685q68 0 130.5 -23.5t111.5 -68.5t77.5 -110t28.5 -148t-28.5 -148t-77.5 -110t-111.5 -68.5t-130.5 -23.5t-130.5 23.5t-111.5 68.5t-77.5 110t-28.5 148t28.5 148t77.5 110t111.5 68.5t130.5 23.5zM388 510q-45 0 -80 -23t-55.5 -62.5t-20.5 -89.5t20.5 -89.5
t55.5 -62.5t80 -23t80.5 23t55.5 62.5t20 89.5t-20 89.5t-55.5 62.5t-80.5 23zM558 870l-132 -150h-122l100 150h154z" />
    <glyph glyph-name="Ocircumflex" unicode="&#xd4;" horiz-adv-x="776" 
d="M388 685q68 0 130.5 -23.5t111.5 -68.5t77.5 -110t28.5 -148t-28.5 -148t-77.5 -110t-111.5 -68.5t-130.5 -23.5t-130.5 23.5t-111.5 68.5t-77.5 110t-28.5 148t28.5 148t77.5 110t111.5 68.5t130.5 23.5zM388 510q-45 0 -80 -23t-55.5 -62.5t-20.5 -89.5t20.5 -89.5
t55.5 -62.5t80 -23t80.5 23t55.5 62.5t20 89.5t-20 89.5t-55.5 62.5t-80.5 23zM440 870l120 -150h-132l-40 59l-40 -59h-132l120 150h104z" />
    <glyph glyph-name="Otilde" unicode="&#xd5;" horiz-adv-x="776" 
d="M388 685q68 0 130.5 -23.5t111.5 -68.5t77.5 -110t28.5 -148t-28.5 -148t-77.5 -110t-111.5 -68.5t-130.5 -23.5t-130.5 23.5t-111.5 68.5t-77.5 110t-28.5 148t28.5 148t77.5 110t111.5 68.5t130.5 23.5zM388 510q-45 0 -80 -23t-55.5 -62.5t-20.5 -89.5t20.5 -89.5
t55.5 -62.5t80 -23t80.5 23t55.5 62.5t20 89.5t-20 89.5t-55.5 62.5t-80.5 23zM579 845q0 -70 -37.5 -104.5t-90.5 -34.5q-33 0 -53.5 10.5t-35 20.5t-28.5 10q-33 0 -33 -37h-94q0 70 38 104.5t90 34.5q33 0 53.5 -10t35 -20.5t28.5 -10.5q33 0 33 37h94z" />
    <glyph glyph-name="Odieresis" unicode="&#xd6;" horiz-adv-x="776" 
d="M388 685q68 0 130.5 -23.5t111.5 -68.5t77.5 -110t28.5 -148t-28.5 -148t-77.5 -110t-111.5 -68.5t-130.5 -23.5t-130.5 23.5t-111.5 68.5t-77.5 110t-28.5 148t28.5 148t77.5 110t111.5 68.5t130.5 23.5zM388 510q-45 0 -80 -23t-55.5 -62.5t-20.5 -89.5t20.5 -89.5
t55.5 -62.5t80 -23t80.5 23t55.5 62.5t20 89.5t-20 89.5t-55.5 62.5t-80.5 23zM493 885q31 0 53.5 -22t22.5 -54q0 -31 -22.5 -53.5t-53.5 -22.5t-53.5 22.5t-22.5 53.5q0 32 22.5 54t53.5 22zM283 885q31 0 53.5 -22t22.5 -54q0 -31 -22.5 -53.5t-53.5 -22.5t-53.5 22.5
t-22.5 53.5q0 32 22.5 54t53.5 22z" />
    <glyph glyph-name="multiply" unicode="&#xd7;" 
d="M191 504l84 -85l85 85l106 -106l-85 -85l85 -85l-106 -106l-85 85l-85 -86l-106 106l85 86l-85 85z" />
    <glyph glyph-name="Oslash" unicode="&#xd8;" horiz-adv-x="776" 
d="M388 685q108 0 194 -55l48 55l82 -60l-54 -61q36 -44 57 -101.5t21 -127.5q0 -83 -28.5 -148t-77.5 -110t-111.5 -68.5t-130.5 -23.5q-104 0 -189 52l-45 -52l-79 60l48 55q-38 44 -60.5 103t-22.5 132q0 83 28.5 148t77.5 110t111.5 68.5t130.5 23.5zM388 510
q-45 0 -80 -23t-55.5 -62.5t-20.5 -89.5q0 -48 19 -87l211 243q-34 19 -74 19zM544 335q0 43 -16 79l-208 -238q32 -16 68 -16q45 0 80.5 23t55.5 62.5t20 89.5z" />
    <glyph glyph-name="Ugrave" unicode="&#xd9;" horiz-adv-x="766" 
d="M686 672v-407q0 -87 -41 -150t-109.5 -96.5t-152.5 -33.5q-83 0 -152 33.5t-110 96.5t-41 150v407h187v-394q0 -52 28 -85.5t88 -32.5t88 33.5t28 84.5v394h187zM347 870l100 -150h-122l-132 150h154z" />
    <glyph glyph-name="Uacute" unicode="&#xda;" horiz-adv-x="766" 
d="M686 672v-407q0 -87 -41 -150t-109.5 -96.5t-152.5 -33.5q-83 0 -152 33.5t-110 96.5t-41 150v407h187v-394q0 -52 28 -85.5t88 -32.5t88 33.5t28 84.5v394h187zM553 870l-132 -150h-122l100 150h154z" />
    <glyph glyph-name="Ucircumflex" unicode="&#xdb;" horiz-adv-x="766" 
d="M686 672v-407q0 -87 -41 -150t-109.5 -96.5t-152.5 -33.5q-83 0 -152 33.5t-110 96.5t-41 150v407h187v-394q0 -52 28 -85.5t88 -32.5t88 33.5t28 84.5v394h187zM435 870l120 -150h-132l-40 59l-40 -59h-132l120 150h104z" />
    <glyph glyph-name="Udieresis" unicode="&#xdc;" horiz-adv-x="766" 
d="M686 672v-407q0 -87 -41 -150t-109.5 -96.5t-152.5 -33.5q-83 0 -152 33.5t-110 96.5t-41 150v407h187v-394q0 -52 28 -85.5t88 -32.5t88 33.5t28 84.5v394h187zM488 885q31 0 53.5 -22t22.5 -54q0 -31 -22.5 -53.5t-53.5 -22.5t-53.5 22.5t-22.5 53.5q0 32 22.5 54
t53.5 22zM278 885q31 0 53.5 -22t22.5 -54q0 -31 -22.5 -53.5t-53.5 -22.5t-53.5 22.5t-22.5 53.5q0 32 22.5 54t53.5 22z" />
    <glyph glyph-name="Yacute" unicode="&#xdd;" horiz-adv-x="731" 
d="M721 670l-262 -439v-231h-187v231l-262 439h218l138 -248l137 248h218zM536 870l-132 -150h-122l100 150h154z" />
    <glyph glyph-name="Thorn" unicode="&#xde;" horiz-adv-x="684" 
d="M247 670v-109h181q58 0 109.5 -30t84 -81.5t32.5 -116.5q0 -70 -34.5 -123t-93 -82t-129.5 -29q-44 0 -79.5 7t-70.5 17v-123h-157v670h157zM373 411h-126v-137q29 -15 69 -22.5t67 -7.5q52 0 80.5 22t28.5 67q0 40 -35.5 59t-83.5 19z" />
    <glyph glyph-name="germandbls" unicode="&#xdf;" horiz-adv-x="733" 
d="M289 725q50 0 97.5 -16t86 -45.5t61.5 -70.5t23 -91q0 -28 -12.5 -47.5t-29.5 -34t-29.5 -27t-12.5 -27.5q0 -19 19 -26t48 -19l51 -21q55 -22 88.5 -56.5t33.5 -89.5q0 -50 -30 -88t-78.5 -59.5t-102.5 -21.5q-57 0 -107.5 15t-84.5 33v133q36 -15 88 -29.5t102 -14.5
q26 0 43.5 6t17.5 23q0 19 -24 30t-53 20l-65 20q-24 8 -47.5 20t-39 36t-15.5 65q0 28 8.5 48t20 36.5t20 33t8.5 36.5q0 44 -23 68t-59 23q-38 -1 -59 -25t-21 -77v-485h-172v514q0 67 36 114t93.5 72t119.5 25z" />
    <glyph glyph-name="agrave" unicode="&#xe0;" horiz-adv-x="649" 
d="M265 525q40 0 78.5 -17.5t63.5 -44.5v47h172v-510h-172v85q-19 -42 -58 -71t-94 -29q-57 0 -107 29t-81.5 89.5t-31.5 152.5q0 86 31.5 146t84 91.5t114.5 31.5zM301 357q-37 0 -61.5 -30t-24.5 -71t25 -69t66 -28q22 0 45 11.5t39.5 35t16.5 60.5v49q-22 18 -49.5 30
t-56.5 12zM287 710l100 -150h-122l-132 150h154z" />
    <glyph glyph-name="aacute" unicode="&#xe1;" horiz-adv-x="649" 
d="M265 525q40 0 78.5 -17.5t63.5 -44.5v47h172v-510h-172v85q-19 -42 -58 -71t-94 -29q-57 0 -107 29t-81.5 89.5t-31.5 152.5q0 86 31.5 146t84 91.5t114.5 31.5zM301 357q-37 0 -61.5 -30t-24.5 -71t25 -69t66 -28q22 0 45 11.5t39.5 35t16.5 60.5v49q-22 18 -49.5 30
t-56.5 12zM493 710l-132 -150h-122l100 150h154z" />
    <glyph glyph-name="acircumflex" unicode="&#xe2;" horiz-adv-x="649" 
d="M265 525q40 0 78.5 -17.5t63.5 -44.5v47h172v-510h-172v85q-19 -42 -58 -71t-94 -29q-57 0 -107 29t-81.5 89.5t-31.5 152.5q0 86 31.5 146t84 91.5t114.5 31.5zM301 357q-37 0 -61.5 -30t-24.5 -71t25 -69t66 -28q22 0 45 11.5t39.5 35t16.5 60.5v49q-22 18 -49.5 30
t-56.5 12zM375 710l120 -150h-132l-40 59l-40 -59h-132l120 150h104z" />
    <glyph glyph-name="atilde" unicode="&#xe3;" horiz-adv-x="649" 
d="M265 525q40 0 78.5 -17.5t63.5 -44.5v47h172v-510h-172v85q-19 -42 -58 -71t-94 -29q-57 0 -107 29t-81.5 89.5t-31.5 152.5q0 86 31.5 146t84 91.5t114.5 31.5zM301 357q-37 0 -61.5 -30t-24.5 -71t25 -69t66 -28q22 0 45 11.5t39.5 35t16.5 60.5v49q-22 18 -49.5 30
t-56.5 12zM514 685q0 -70 -37.5 -104.5t-90.5 -34.5q-33 0 -53.5 10.5t-35 20.5t-28.5 10q-33 0 -33 -37h-94q0 70 38 104.5t90 34.5q33 0 53.5 -10t35 -20.5t28.5 -10.5q33 0 33 37h94z" />
    <glyph glyph-name="adieresis" unicode="&#xe4;" horiz-adv-x="649" 
d="M265 525q40 0 78.5 -17.5t63.5 -44.5v47h172v-510h-172v85q-19 -42 -58 -71t-94 -29q-57 0 -107 29t-81.5 89.5t-31.5 152.5q0 86 31.5 146t84 91.5t114.5 31.5zM301 357q-37 0 -61.5 -30t-24.5 -71t25 -69t66 -28q22 0 45 11.5t39.5 35t16.5 60.5v49q-22 18 -49.5 30
t-56.5 12zM428 725q31 0 53.5 -22t22.5 -54q0 -31 -22.5 -53.5t-53.5 -22.5t-53.5 22.5t-22.5 53.5q0 32 22.5 54t53.5 22zM218 725q31 0 53.5 -22t22.5 -54q0 -31 -22.5 -53.5t-53.5 -22.5t-53.5 22.5t-22.5 53.5q0 32 22.5 54t53.5 22z" />
    <glyph glyph-name="aring" unicode="&#xe5;" horiz-adv-x="649" 
d="M265 525q40 0 78.5 -17.5t63.5 -44.5v47h172v-510h-172v85q-19 -42 -58 -71t-94 -29q-57 0 -107 29t-81.5 89.5t-31.5 152.5q0 86 31.5 146t84 91.5t114.5 31.5zM301 357q-37 0 -61.5 -30t-24.5 -71t25 -69t66 -28q22 0 45 11.5t39.5 35t16.5 60.5v49q-22 18 -49.5 30
t-56.5 12zM323 733q40 0 68 -26.5t28 -64.5t-28 -64.5t-68 -26.5t-68.5 26.5t-28.5 64.5t28.5 64.5t68.5 26.5zM323 678q-16 0 -27.5 -10.5t-11.5 -25.5q0 -16 11.5 -26t27.5 -10q15 0 26.5 10t11.5 26q0 15 -11.5 25.5t-26.5 10.5z" />
    <glyph glyph-name="ae" unicode="&#xe6;" horiz-adv-x="1020" 
d="M748 525q72 0 128 -32t87.5 -89.5t31.5 -136.5v-59h-347q11 -37 44 -55t76 -18q58 0 100.5 16.5t63.5 28.5v-147q-26 -16 -71.5 -32t-102.5 -16q-54 0 -104.5 18t-90.5 52t-63 82.5t-23 109.5q0 76 35.5 139t97 101t138.5 38zM743 383q-33 0 -57 -17.5t-35 -53.5h181
q0 36 -27.5 53.5t-61.5 17.5zM265 525q40 0 78.5 -17.5t63.5 -44.5v47h172v-510h-172v85q-19 -42 -58 -71t-94 -29q-57 0 -107 29t-81.5 89.5t-31.5 152.5q0 86 31.5 146t84 91.5t114.5 31.5zM301 357q-37 0 -61.5 -30t-24.5 -71t25 -69t66 -28q22 0 45 11.5t39.5 35
t16.5 60.5v49q-22 18 -49.5 30t-56.5 12z" />
    <glyph glyph-name="ccedilla" unicode="&#xe7;" horiz-adv-x="472" 
d="M304 525q59 0 90.5 -18.5t57.5 -38.5v-150q-23 17 -52.5 27t-72.5 10q-23 0 -48 -12t-42 -34.5t-17 -56.5q0 -50 32 -76t75 -26t72.5 10.5t52.5 26.5v-150q-26 -20 -57.5 -36t-90.5 -16q-57 0 -106 21.5t-85.5 59t-57 85.5t-20.5 101t20.5 102t57 87.5t85.5 61t106 22.5z
M325 2l-3 -48q41 2 65.5 -23t24.5 -62q0 -51 -33 -80t-85 -29q-15 0 -39.5 6t-40.5 19l7 74q16 -8 32 -17t38 -9q10 0 21 6.5t11 19.5q0 12 -9.5 18t-20.5 6q-13 0 -30 -9l-24 12l12 116h74z" />
    <glyph glyph-name="egrave" unicode="&#xe8;" horiz-adv-x="578" 
d="M306 525q72 0 128 -32t87.5 -89.5t31.5 -136.5v-59h-347q11 -37 44 -55t76 -18q58 0 100.5 16.5t63.5 28.5v-147q-26 -16 -71.5 -32t-102.5 -16q-54 0 -104.5 18t-90.5 52t-63 82.5t-23 109.5q0 76 35.5 139t97 101t138.5 38zM301 383q-33 0 -57 -17.5t-35 -53.5h181
q0 36 -27.5 53.5t-61.5 17.5zM275 710l100 -150h-122l-132 150h154z" />
    <glyph glyph-name="eacute" unicode="&#xe9;" horiz-adv-x="578" 
d="M306 525q72 0 128 -32t87.5 -89.5t31.5 -136.5v-59h-347q11 -37 44 -55t76 -18q58 0 100.5 16.5t63.5 28.5v-147q-26 -16 -71.5 -32t-102.5 -16q-54 0 -104.5 18t-90.5 52t-63 82.5t-23 109.5q0 76 35.5 139t97 101t138.5 38zM301 383q-33 0 -57 -17.5t-35 -53.5h181
q0 36 -27.5 53.5t-61.5 17.5zM481 710l-132 -150h-122l100 150h154z" />
    <glyph glyph-name="ecircumflex" unicode="&#xea;" horiz-adv-x="578" 
d="M306 525q72 0 128 -32t87.5 -89.5t31.5 -136.5v-59h-347q11 -37 44 -55t76 -18q58 0 100.5 16.5t63.5 28.5v-147q-26 -16 -71.5 -32t-102.5 -16q-54 0 -104.5 18t-90.5 52t-63 82.5t-23 109.5q0 76 35.5 139t97 101t138.5 38zM301 383q-33 0 -57 -17.5t-35 -53.5h181
q0 36 -27.5 53.5t-61.5 17.5zM363 710l120 -150h-132l-40 59l-40 -59h-132l120 150h104z" />
    <glyph glyph-name="edieresis" unicode="&#xeb;" horiz-adv-x="578" 
d="M306 525q72 0 128 -32t87.5 -89.5t31.5 -136.5v-59h-347q11 -37 44 -55t76 -18q58 0 100.5 16.5t63.5 28.5v-147q-26 -16 -71.5 -32t-102.5 -16q-54 0 -104.5 18t-90.5 52t-63 82.5t-23 109.5q0 76 35.5 139t97 101t138.5 38zM301 383q-33 0 -57 -17.5t-35 -53.5h181
q0 36 -27.5 53.5t-61.5 17.5zM416 725q31 0 53.5 -22t22.5 -54q0 -31 -22.5 -53.5t-53.5 -22.5t-53.5 22.5t-22.5 53.5q0 32 22.5 54t53.5 22zM206 725q31 0 53.5 -22t22.5 -54q0 -31 -22.5 -53.5t-53.5 -22.5t-53.5 22.5t-22.5 53.5q0 32 22.5 54t53.5 22z" />
    <glyph glyph-name="igrave" unicode="&#xec;" horiz-adv-x="375" 
d="M305 510v-510h-172v370h-83v140h255zM157 710l100 -150h-122l-132 150h154z" />
    <glyph glyph-name="iacute" unicode="&#xed;" horiz-adv-x="375" 
d="M305 510v-510h-172v370h-83v140h255zM363 710l-132 -150h-122l100 150h154z" />
    <glyph glyph-name="icircumflex" unicode="&#xee;" horiz-adv-x="314" 
d="M214 710l120 -150h-132l-40 59l-40 -59h-132l120 150h104zM331 510v-510h-172v370h-83v140h255z" />
    <glyph glyph-name="idieresis" unicode="&#xef;" horiz-adv-x="375" 
d="M305 510v-510h-172v370h-83v140h255zM298 725q31 0 53.5 -22t22.5 -54q0 -31 -22.5 -53.5t-53.5 -22.5t-53.5 22.5t-22.5 53.5q0 32 22.5 54t53.5 22zM88 725q31 0 53.5 -22t22.5 -54q0 -31 -22.5 -53.5t-53.5 -22.5t-53.5 22.5t-22.5 53.5q0 32 22.5 54t53.5 22z" />
    <glyph glyph-name="eth" unicode="&#xf0;" horiz-adv-x="608" 
d="M323 726q41 -32 75 -63l79 45l44 -70l-66 -36q55 -66 86.5 -142.5t31.5 -167.5q0 -100 -37.5 -168.5t-99 -103.5t-132.5 -35t-132.5 34t-99 94.5t-37.5 138.5q0 79 37 134t96.5 84.5t125.5 29.5q28 0 59.5 -15t57.5 -42q-8 24 -26.5 48.5t-42.5 47.5l-60 -33l-44 65
l41 24q-15 12 -28.5 22t-24.5 18zM315 360q-18 0 -40.5 -8t-38.5 -30.5t-16 -66.5q0 -43 16 -66t38.5 -31t40.5 -8q19 0 41 8t38 31t16 66q0 44 -16 66.5t-38 30.5t-41 8z" />
    <glyph glyph-name="ntilde" unicode="&#xf1;" horiz-adv-x="628" 
d="M242 510v-66q24 33 58.5 57t85.5 24q78 0 127.5 -53t49.5 -157v-315h-172l-1 288q0 38 -21 53.5t-47 15.5q-28 0 -47 -14.5t-33 -34.5v-308h-172v510h172zM524 688q0 -70 -37.5 -104.5t-90.5 -34.5q-33 0 -53.5 10.5t-35 20.5t-28.5 10q-33 0 -33 -37h-94q0 70 38 104.5
t90 34.5q33 0 53.5 -10t35 -20.5t28.5 -10.5q33 0 33 37h94z" />
    <glyph glyph-name="ograve" unicode="&#xf2;" horiz-adv-x="630" 
d="M315 525q53 0 103 -20t90 -56t63.5 -85.5t23.5 -108.5t-23.5 -108.5t-63.5 -85.5t-90 -56t-103 -20t-103 20t-90 56t-63.5 85.5t-23.5 108.5t23.5 108.5t63.5 85.5t90 56t103 20zM315 360q-18 0 -40.5 -8t-38.5 -30.5t-16 -66.5q0 -43 16 -66t38.5 -31t40.5 -8q19 0 41 8
t38 31t16 66q0 44 -16 66.5t-38 30.5t-41 8zM279 710l100 -150h-122l-132 150h154z" />
    <glyph glyph-name="oacute" unicode="&#xf3;" horiz-adv-x="630" 
d="M315 525q53 0 103 -20t90 -56t63.5 -85.5t23.5 -108.5t-23.5 -108.5t-63.5 -85.5t-90 -56t-103 -20t-103 20t-90 56t-63.5 85.5t-23.5 108.5t23.5 108.5t63.5 85.5t90 56t103 20zM315 360q-18 0 -40.5 -8t-38.5 -30.5t-16 -66.5q0 -43 16 -66t38.5 -31t40.5 -8q19 0 41 8
t38 31t16 66q0 44 -16 66.5t-38 30.5t-41 8zM485 710l-132 -150h-122l100 150h154z" />
    <glyph glyph-name="ocircumflex" unicode="&#xf4;" horiz-adv-x="630" 
d="M315 525q53 0 103 -20t90 -56t63.5 -85.5t23.5 -108.5t-23.5 -108.5t-63.5 -85.5t-90 -56t-103 -20t-103 20t-90 56t-63.5 85.5t-23.5 108.5t23.5 108.5t63.5 85.5t90 56t103 20zM315 360q-18 0 -40.5 -8t-38.5 -30.5t-16 -66.5q0 -43 16 -66t38.5 -31t40.5 -8q19 0 41 8
t38 31t16 66q0 44 -16 66.5t-38 30.5t-41 8zM367 710l120 -150h-132l-40 59l-40 -59h-132l120 150h104z" />
    <glyph glyph-name="otilde" unicode="&#xf5;" horiz-adv-x="630" 
d="M315 525q53 0 103 -20t90 -56t63.5 -85.5t23.5 -108.5t-23.5 -108.5t-63.5 -85.5t-90 -56t-103 -20t-103 20t-90 56t-63.5 85.5t-23.5 108.5t23.5 108.5t63.5 85.5t90 56t103 20zM315 360q-18 0 -40.5 -8t-38.5 -30.5t-16 -66.5q0 -43 16 -66t38.5 -31t40.5 -8q19 0 41 8
t38 31t16 66q0 44 -16 66.5t-38 30.5t-41 8zM506 685q0 -70 -37.5 -104.5t-90.5 -34.5q-33 0 -53.5 10.5t-35 20.5t-28.5 10q-33 0 -33 -37h-94q0 70 38 104.5t90 34.5q33 0 53.5 -10t35 -20.5t28.5 -10.5q33 0 33 37h94z" />
    <glyph glyph-name="odieresis" unicode="&#xf6;" horiz-adv-x="630" 
d="M315 525q53 0 103 -20t90 -56t63.5 -85.5t23.5 -108.5t-23.5 -108.5t-63.5 -85.5t-90 -56t-103 -20t-103 20t-90 56t-63.5 85.5t-23.5 108.5t23.5 108.5t63.5 85.5t90 56t103 20zM315 360q-18 0 -40.5 -8t-38.5 -30.5t-16 -66.5q0 -43 16 -66t38.5 -31t40.5 -8q19 0 41 8
t38 31t16 66q0 44 -16 66.5t-38 30.5t-41 8zM420 725q31 0 53.5 -22t22.5 -54q0 -31 -22.5 -53.5t-53.5 -22.5t-53.5 22.5t-22.5 53.5q0 32 22.5 54t53.5 22zM210 725q31 0 53.5 -22t22.5 -54q0 -31 -22.5 -53.5t-53.5 -22.5t-53.5 22.5t-22.5 53.5q0 32 22.5 54t53.5 22z
" />
    <glyph glyph-name="divide" unicode="&#xf7;" horiz-adv-x="551" 
d="M276 599q35 0 60 -25t25 -60q0 -34 -25 -59.5t-60 -25.5t-60 25.5t-25 59.5q0 35 25 60t60 25zM471 388v-150h-391v150h391zM276 195q35 0 60 -25t25 -60q0 -34 -25 -59.5t-60 -25.5t-60 25.5t-25 59.5q0 35 25 60t60 25z" />
    <glyph glyph-name="oslash" unicode="&#xf8;" 
d="M315 525q78 0 147 -41l41 44l72 -60l-42 -45q29 -34 45.5 -76.5t16.5 -91.5q0 -59 -23.5 -108.5t-63.5 -85.5t-90 -56t-103 -20q-80 0 -150 43l-49 -53l-69 60l49 53q-28 34 -44.5 76t-16.5 91q0 59 23.5 108.5t63.5 85.5t90 56t103 20zM315 360q-18 0 -40.5 -8
t-38.5 -30.5t-16 -66.5q0 -16 3 -30l121 131q-14 4 -29 4zM410 255q0 18 -3 32l-124 -132q15 -5 32 -5q19 0 41 8t38 31t16 66z" />
    <glyph glyph-name="ugrave" unicode="&#xf9;" horiz-adv-x="618" 
d="M553 510v-306q0 -69 -31.5 -118t-86.5 -75t-126 -26t-126 26t-86.5 75t-31.5 118v306h172l1 -260q0 -52 16.5 -76t54.5 -24t54.5 24t16.5 76l1 260h172zM281 710l100 -150h-122l-132 150h154z" />
    <glyph glyph-name="uacute" unicode="&#xfa;" horiz-adv-x="618" 
d="M553 510v-306q0 -69 -31.5 -118t-86.5 -75t-126 -26t-126 26t-86.5 75t-31.5 118v306h172l1 -260q0 -52 16.5 -76t54.5 -24t54.5 24t16.5 76l1 260h172zM487 710l-132 -150h-122l100 150h154z" />
    <glyph glyph-name="ucircumflex" unicode="&#xfb;" horiz-adv-x="618" 
d="M553 510v-306q0 -69 -31.5 -118t-86.5 -75t-126 -26t-126 26t-86.5 75t-31.5 118v306h172l1 -260q0 -52 16.5 -76t54.5 -24t54.5 24t16.5 76l1 260h172zM369 710l120 -150h-132l-40 59l-40 -59h-132l120 150h104z" />
    <glyph glyph-name="udieresis" unicode="&#xfc;" horiz-adv-x="618" 
d="M553 510v-306q0 -69 -31.5 -118t-86.5 -75t-126 -26t-126 26t-86.5 75t-31.5 118v306h172l1 -260q0 -52 16.5 -76t54.5 -24t54.5 24t16.5 76l1 260h172zM422 725q31 0 53.5 -22t22.5 -54q0 -31 -22.5 -53.5t-53.5 -22.5t-53.5 22.5t-22.5 53.5q0 32 22.5 54t53.5 22z
M212 725q31 0 53.5 -22t22.5 -54q0 -31 -22.5 -53.5t-53.5 -22.5t-53.5 22.5t-22.5 53.5q0 32 22.5 54t53.5 22z" />
    <glyph glyph-name="yacute" unicode="&#xfd;" horiz-adv-x="622" 
d="M203 510l113 -271l109 271h192l-366 -750h-192l161 284l-215 466h198zM476 710l-132 -150h-122l100 150h154z" />
    <glyph glyph-name="thorn" unicode="&#xfe;" horiz-adv-x="649" 
d="M70 720h172v-295q19 42 58 71t94 29q57 0 107.5 -29t81.5 -89t31 -153q0 -86 -31.5 -146t-84 -91.5t-114.5 -31.5q-40 0 -78.5 17.5t-63.5 44.5v-257h-172v930zM343 351q-21 0 -44.5 -11.5t-40 -35t-16.5 -60.5v-49q23 -18 50.5 -30t55.5 -12q38 0 62 30.5t24 70.5
q0 41 -25 69t-66 28z" />
    <glyph glyph-name="ydieresis" unicode="&#xff;" horiz-adv-x="622" 
d="M203 510l113 -271l109 271h192l-366 -750h-192l161 284l-215 466h198zM411 725q31 0 53.5 -22t22.5 -54q0 -31 -22.5 -53.5t-53.5 -22.5t-53.5 22.5t-22.5 53.5q0 32 22.5 54t53.5 22zM201 725q31 0 53.5 -22t22.5 -54q0 -31 -22.5 -53.5t-53.5 -22.5t-53.5 22.5
t-22.5 53.5q0 32 22.5 54t53.5 22z" />
    <glyph glyph-name="Amacron" unicode="&#x100;" horiz-adv-x="734" 
d="M414 680l310 -680h-218l-33 90h-212l-33 -90h-218l310 680h94zM367 378l-51 -138h102zM550 870v-110h-370v110h370z" />
    <glyph glyph-name="amacron" unicode="&#x101;" horiz-adv-x="649" 
d="M265 525q40 0 78.5 -17.5t63.5 -44.5v47h172v-510h-172v85q-19 -42 -58 -71t-94 -29q-57 0 -107 29t-81.5 89.5t-31.5 152.5q0 86 31.5 146t84 91.5t114.5 31.5zM301 357q-37 0 -61.5 -30t-24.5 -71t25 -69t66 -28q22 0 45 11.5t39.5 35t16.5 60.5v49q-22 18 -49.5 30
t-56.5 12zM508 710v-110h-370v110h370z" />
    <glyph glyph-name="Abreve" unicode="&#x102;" horiz-adv-x="734" 
d="M414 680l310 -680h-218l-33 90h-212l-33 -90h-218l310 680h94zM367 378l-51 -138h102zM527 870q-2 -69 -48 -109.5t-114 -40.5q-67 0 -113.5 40.5t-48.5 109.5h102q9 -42 60 -42q25 0 40.5 14.5t19.5 27.5h102z" />
    <glyph glyph-name="abreve" unicode="&#x103;" horiz-adv-x="649" 
d="M265 525q40 0 78.5 -17.5t63.5 -44.5v47h172v-510h-172v85q-19 -42 -58 -71t-94 -29q-57 0 -107 29t-81.5 89.5t-31.5 152.5q0 86 31.5 146t84 91.5t114.5 31.5zM301 357q-37 0 -61.5 -30t-24.5 -71t25 -69t66 -28q22 0 45 11.5t39.5 35t16.5 60.5v49q-22 18 -49.5 30
t-56.5 12zM485 710q-2 -69 -48 -109.5t-114 -40.5q-67 0 -113.5 40.5t-48.5 109.5h102q9 -42 60 -42q25 0 40.5 14.5t19.5 27.5h102z" />
    <glyph glyph-name="Aogonek" unicode="&#x104;" horiz-adv-x="734" 
d="M414 680l310 -680h-218l-33 90h-212l-33 -90h-218l310 680h94zM367 378l-51 -138h102zM514 1h140q-44 -10 -75 -33.5t-31 -40.5q0 -16 10 -25.5t26 -9.5q17 0 30 5.5t24 12.5v-113q-10 -5 -41 -13.5t-73 -8.5q-30 0 -59 11t-48.5 33t-19.5 55q0 35 17.5 61t44.5 42.5
t55 23.5z" />
    <glyph glyph-name="aogonek" unicode="&#x105;" horiz-adv-x="649" 
d="M265 525q40 0 78.5 -17.5t63.5 -44.5v47h172v-510h-172v85q-19 -42 -58 -71t-94 -29q-57 0 -107 29t-81.5 89.5t-31.5 152.5q0 86 31.5 146t84 91.5t114.5 31.5zM301 357q-37 0 -61.5 -30t-24.5 -71t25 -69t66 -28q22 0 45 11.5t39.5 35t16.5 60.5v49q-22 18 -49.5 30
t-56.5 12zM413 1h140q-44 -10 -75 -33.5t-31 -40.5q0 -16 10 -25.5t26 -9.5q17 0 30 5.5t24 12.5v-113q-10 -5 -41 -13.5t-73 -8.5q-30 0 -59 11t-48.5 33t-19.5 55q0 35 17.5 61t44.5 42.5t55 23.5z" />
    <glyph glyph-name="Cacute" unicode="&#x106;" horiz-adv-x="612" 
d="M395 685q53 0 98 -15t79 -44v-181q-40 32 -76 48.5t-94 16.5q-45 0 -83.5 -23t-62.5 -62.5t-24 -89.5t24 -89.5t62.5 -62.5t83.5 -23q58 0 94 16.5t76 48.5v-181q-34 -29 -79 -44t-98 -15q-68 0 -131.5 23.5t-114 68.5t-80 110t-29.5 148t29.5 148t80 110t114 68.5
t131.5 23.5zM564 870l-132 -150h-122l100 150h154z" />
    <glyph glyph-name="cacute" unicode="&#x107;" horiz-adv-x="472" 
d="M304 525q59 0 90.5 -18.5t57.5 -38.5v-150q-23 17 -52.5 27t-72.5 10q-23 0 -48 -12t-42 -34.5t-17 -56.5q0 -50 32 -76t75 -26t72.5 10.5t52.5 26.5v-150q-26 -20 -57.5 -36t-90.5 -16q-57 0 -106 21.5t-85.5 59t-57 85.5t-20.5 101t20.5 102t57 87.5t85.5 61t106 22.5z
M470 710l-132 -150h-122l100 150h154z" />
    <glyph glyph-name="Ccaron" unicode="&#x10c;" horiz-adv-x="612" 
d="M395 685q53 0 98 -15t79 -44v-181q-40 32 -76 48.5t-94 16.5q-45 0 -83.5 -23t-62.5 -62.5t-24 -89.5t24 -89.5t62.5 -62.5t83.5 -23q58 0 94 16.5t76 48.5v-181q-34 -29 -79 -44t-98 -15q-68 0 -131.5 23.5t-114 68.5t-80 110t-29.5 148t29.5 148t80 110t114 68.5
t131.5 23.5zM222 870h132l40 -59l40 59h132l-120 -150h-104z" />
    <glyph glyph-name="ccaron" unicode="&#x10d;" horiz-adv-x="472" 
d="M304 525q59 0 90.5 -18.5t57.5 -38.5v-150q-23 17 -52.5 27t-72.5 10q-23 0 -48 -12t-42 -34.5t-17 -56.5q0 -50 32 -76t75 -26t72.5 10.5t52.5 26.5v-150q-26 -20 -57.5 -36t-90.5 -16q-57 0 -106 21.5t-85.5 59t-57 85.5t-20.5 101t20.5 102t57 87.5t85.5 61t106 22.5z
M128 710h132l40 -59l40 59h132l-120 -150h-104z" />
    <glyph glyph-name="Dcaron" unicode="&#x10e;" horiz-adv-x="761" 
d="M363 686q100 0 181 -40t129 -116t48 -184q0 -74 -24.5 -139.5t-69.5 -115.5t-108 -78t-141 -28q-46 0 -97.5 3.5t-100.5 10t-90 14.5v645q64 11 135.5 19.5t137.5 8.5zM369 511q-23 0 -47.5 -3.5t-44.5 -8.5v-327q23 -7 47 -9.5t45 -2.5q51 0 86.5 23.5t54.5 63.5t19 89
q0 78 -41.5 126.5t-118.5 48.5zM158 870h132l40 -59l40 59h132l-120 -150h-104z" />
    <glyph glyph-name="dcaron" unicode="&#x10f;" horiz-adv-x="762" 
d="M579 720v-720h-172v85q-19 -42 -58 -71t-94 -29q-57 0 -107 29t-81.5 89.5t-31.5 152.5q0 86 31.5 146t84 91.5t114.5 31.5q40 0 78.5 -17.5t63.5 -44.5v257h172zM615 718h142l-30 -188h-122zM301 357q-37 0 -61.5 -30t-24.5 -71t25 -69t66 -28q22 0 45 11.5t39.5 35
t16.5 60.5v49q-22 18 -49.5 30t-56.5 12z" />
    <glyph glyph-name="Dcroat" unicode="&#x110;" horiz-adv-x="761" 
d="M363 686q100 0 181 -40t129 -116t48 -184q0 -74 -24.5 -139.5t-69.5 -115.5t-108 -78t-141 -28q-46 0 -97.5 3.5t-100.5 10t-90 14.5v645q64 11 135.5 19.5t137.5 8.5zM369 511q-23 0 -47.5 -3.5t-44.5 -8.5v-327q23 -7 47 -9.5t45 -2.5q51 0 86.5 23.5t54.5 63.5t19 89
q0 78 -41.5 126.5t-118.5 48.5zM327 411v-150h-301v150h301z" />
    <glyph glyph-name="dcroat" unicode="&#x111;" horiz-adv-x="645" 
d="M635 653v-110h-56v-543h-172v85q-19 -42 -58 -71t-94 -29q-57 0 -107 29t-81.5 89.5t-31.5 152.5q0 86 31.5 146t84 91.5t114.5 31.5q40 0 78.5 -17.5t63.5 -44.5v80h-100v110h100v67h172v-67h56zM301 357q-37 0 -61.5 -30t-24.5 -71t25 -69t66 -28q22 0 45 11.5t39.5 35
t16.5 60.5v49q-22 18 -49.5 30t-56.5 12z" />
    <glyph glyph-name="Emacron" unicode="&#x112;" horiz-adv-x="658" 
d="M543 409v-140h-266v-109h301v-160h-488v670h488v-155h-301v-106h266zM519 870v-110h-370v110h370z" />
    <glyph glyph-name="emacron" unicode="&#x113;" horiz-adv-x="578" 
d="M306 525q72 0 128 -32t87.5 -89.5t31.5 -136.5v-59h-347q11 -37 44 -55t76 -18q58 0 100.5 16.5t63.5 28.5v-147q-26 -16 -71.5 -32t-102.5 -16q-54 0 -104.5 18t-90.5 52t-63 82.5t-23 109.5q0 76 35.5 139t97 101t138.5 38zM301 383q-33 0 -57 -17.5t-35 -53.5h181
q0 36 -27.5 53.5t-61.5 17.5zM496 710v-110h-370v110h370z" />
    <glyph glyph-name="Edotaccent" unicode="&#x116;" horiz-adv-x="658" 
d="M543 409v-140h-266v-109h301v-160h-488v670h488v-155h-301v-106h266zM334 870q31 0 53.5 -22t22.5 -54q0 -31 -22.5 -53.5t-53.5 -22.5t-53.5 22.5t-22.5 53.5q0 32 22.5 54t53.5 22z" />
    <glyph glyph-name="edotaccent" unicode="&#x117;" horiz-adv-x="578" 
d="M306 525q72 0 128 -32t87.5 -89.5t31.5 -136.5v-59h-347q11 -37 44 -55t76 -18q58 0 100.5 16.5t63.5 28.5v-147q-26 -16 -71.5 -32t-102.5 -16q-54 0 -104.5 18t-90.5 52t-63 82.5t-23 109.5q0 76 35.5 139t97 101t138.5 38zM301 383q-33 0 -57 -17.5t-35 -53.5h181
q0 36 -27.5 53.5t-61.5 17.5zM311 710q31 0 53.5 -22t22.5 -54q0 -31 -22.5 -53.5t-53.5 -22.5t-53.5 22.5t-22.5 53.5q0 32 22.5 54t53.5 22z" />
    <glyph glyph-name="Eogonek" unicode="&#x118;" horiz-adv-x="658" 
d="M543 409v-140h-266v-109h301v-160h-488v670h488v-155h-301v-106h266zM445 1h140q-44 -10 -75 -33.5t-31 -40.5q0 -16 10 -25.5t26 -9.5q17 0 30 5.5t24 12.5v-113q-10 -5 -41 -13.5t-73 -8.5q-30 0 -59 11t-48.5 33t-19.5 55q0 35 17.5 61t44.5 42.5t55 23.5z" />
    <glyph glyph-name="eogonek" unicode="&#x119;" horiz-adv-x="578" 
d="M306 525q72 0 128 -32t87.5 -89.5t31.5 -136.5v-59h-347q11 -37 44 -55t76 -18q58 0 100.5 16.5t63.5 28.5v-147q-26 -16 -71.5 -32t-102.5 -16q-54 0 -104.5 18t-90.5 52t-63 82.5t-23 109.5q0 76 35.5 139t97 101t138.5 38zM301 383q-33 0 -57 -17.5t-35 -53.5h181
q0 36 -27.5 53.5t-61.5 17.5zM303 1h140q-44 -10 -75 -33.5t-31 -40.5q0 -16 10 -25.5t26 -9.5q17 0 30 5.5t24 12.5v-113q-10 -5 -41 -13.5t-73 -8.5q-30 0 -59 11t-48.5 33t-19.5 55q0 35 17.5 61t44.5 42.5t55 23.5z" />
    <glyph glyph-name="Ecaron" unicode="&#x11a;" horiz-adv-x="658" 
d="M543 409v-140h-266v-109h301v-160h-488v670h488v-155h-301v-106h266zM162 870h132l40 -59l40 59h132l-120 -150h-104z" />
    <glyph glyph-name="ecaron" unicode="&#x11b;" horiz-adv-x="578" 
d="M306 525q72 0 128 -32t87.5 -89.5t31.5 -136.5v-59h-347q11 -37 44 -55t76 -18q58 0 100.5 16.5t63.5 28.5v-147q-26 -16 -71.5 -32t-102.5 -16q-54 0 -104.5 18t-90.5 52t-63 82.5t-23 109.5q0 76 35.5 139t97 101t138.5 38zM301 383q-33 0 -57 -17.5t-35 -53.5h181
q0 36 -27.5 53.5t-61.5 17.5zM139 710h132l40 -59l40 59h132l-120 -150h-104z" />
    <glyph glyph-name="uni0122" unicode="&#x122;" horiz-adv-x="705" 
d="M480 359h160v-270q-47 -49 -108.5 -76.5t-136.5 -27.5q-68 0 -131.5 23.5t-114 68.5t-80 110t-29.5 148t29.5 148t80 110t114 68.5t131.5 23.5q53 0 98 -15t79 -44v-181q-40 32 -76 48.5t-94 16.5q-45 0 -83.5 -23t-62.5 -62.5t-24 -89.5t24 -89.5t62.5 -62.5t83.5 -23
q23 0 43 4.5t34 11.5zM386 -22q43 0 76.5 -24t33.5 -73q0 -53 -31.5 -79.5t-71.5 -26.5q-16 0 -29.5 5.5t-23.5 12.5v84q22 -15 47 -15q11 0 18.5 4.5t7.5 13.5t-8 14t-19 5v79z" />
    <glyph glyph-name="uni0123" unicode="&#x123;" horiz-adv-x="649" 
d="M265 525q40 0 78.5 -17.5t63.5 -44.5v47h172v-495q0 -81 -40 -141.5t-106 -94.5t-145 -34q-64 0 -111 17.5t-94 48.5v152q32 -18 58.5 -32t57.5 -22.5t73 -8.5q62 0 98.5 35t36.5 79v71q-19 -42 -58 -71t-94 -29q-57 0 -107 29t-81.5 89.5t-31.5 152.5q0 86 31.5 146
t84 91.5t114.5 31.5zM301 357q-37 0 -61.5 -30t-24.5 -71t25 -69t66 -28q22 0 45 11.5t39.5 35t16.5 60.5v49q-22 18 -49.5 30t-56.5 12zM357 532q-43 0 -76.5 24t-33.5 73q0 53 31.5 79.5t71.5 26.5q16 0 29.5 -5.5t23.5 -12.5v-84q-22 15 -47 15q-11 0 -18.5 -4.5
t-7.5 -13.5t8 -14t19 -5v-79z" />
    <glyph glyph-name="Imacron" unicode="&#x12a;" horiz-adv-x="573" 
d="M493 165v-165h-413v165h113v340h-113v165h413v-165h-113v-340h113zM472 870v-110h-370v110h370z" />
    <glyph glyph-name="imacron" unicode="&#x12b;" horiz-adv-x="435" 
d="M395 710v-110h-370v110h370zM341 510v-510h-172v370h-83v140h255z" />
    <glyph glyph-name="Iogonek" unicode="&#x12e;" horiz-adv-x="573" 
d="M493 165v-165h-413v165h113v340h-113v165h413v-165h-113v-340h113zM229 1h140q-44 -10 -75 -33.5t-31 -40.5q0 -16 10 -25.5t26 -9.5q17 0 30 5.5t24 12.5v-113q-10 -5 -41 -13.5t-73 -8.5q-30 0 -59 11t-48.5 33t-19.5 55q0 35 17.5 61t44.5 42.5t55 23.5z" />
    <glyph glyph-name="iogonek" unicode="&#x12f;" horiz-adv-x="382" 
d="M132 1h140q-44 -10 -75 -33.5t-31 -40.5q0 -16 10 -25.5t26 -9.5q17 0 30 5.5t24 12.5v-113q-10 -5 -41 -13.5t-73 -8.5q-30 0 -59 11t-48.5 33t-19.5 55q0 35 17.5 61t44.5 42.5t55 23.5zM214 796q29 0 53.5 -14t39.5 -37.5t15 -52.5q0 -28 -15 -52t-39.5 -38t-53.5 -14
q-43 0 -75 30.5t-32 73.5q0 44 32 74t75 30zM311 510v-510h-172v370h-83v140h255z" />
    <glyph glyph-name="dotlessi" unicode="&#x131;" horiz-adv-x="375" 
d="M305 510v-510h-172v370h-83v140h255z" />
    <glyph glyph-name="IJ" unicode="&#x132;" horiz-adv-x="957" 
d="M493 165v-165h-413v165h113v340h-113v165h413v-165h-113v-340h113zM877 672v-625q0 -83 -34.5 -145t-95.5 -101t-142 -56l-62 162q147 32 147 147v618h187z" />
    <glyph glyph-name="ij" unicode="&#x133;" horiz-adv-x="753" 
d="M203 796q29 0 53.5 -14t39.5 -37.5t15 -52.5q0 -28 -15 -52t-39.5 -38t-53.5 -14q-43 0 -75 30.5t-32 73.5q0 44 32 74t75 30zM300 510v-510h-172v370h-83v140h255zM575 796q29 0 53.5 -14t39.5 -37.5t15 -52.5q0 -28 -15 -52t-39.5 -38t-53.5 -14t-53.5 14t-39.5 38
t-15 52q0 44 32.5 74t75.5 30zM666 510v-501q0 -104 -47.5 -169t-141.5 -95l-75 147q39 17 65.5 46t26.5 73v359h-83v140h255z" />
    <glyph glyph-name="uni0136" unicode="&#x136;" horiz-adv-x="757" 
d="M277 670v-246l205 246h225l-242 -275l272 -395h-238l-161 252l-61 -69v-183h-187v670h187zM352 -22q43 0 76.5 -24t33.5 -73q0 -53 -31.5 -79.5t-71.5 -26.5q-16 0 -29.5 5.5t-23.5 12.5v84q22 -15 47 -15q11 0 18.5 4.5t7.5 13.5t-8 14t-19 5v79z" />
    <glyph glyph-name="uni0137" unicode="&#x137;" horiz-adv-x="627" 
d="M242 720v-415l163 205h208l-206 -220l215 -290h-217l-108 172l-55 -58v-114h-172v720h172zM291 -22q43 0 76.5 -24t33.5 -73q0 -53 -31.5 -79.5t-71.5 -26.5q-16 0 -29.5 5.5t-23.5 12.5v84q22 -15 47 -15q11 0 18.5 4.5t7.5 13.5t-8 14t-19 5v79z" />
    <glyph glyph-name="Lacute" unicode="&#x139;" horiz-adv-x="638" 
d="M277 670v-505h301v-165h-488v670h187zM418 870l-132 -150h-122l100 150h154z" />
    <glyph glyph-name="lacute" unicode="&#x13a;" horiz-adv-x="312" 
d="M242 720v-720h-172v720h172zM377 920l-132 -150h-122l100 150h154z" />
    <glyph glyph-name="uni013B" unicode="&#x13b;" horiz-adv-x="638" 
d="M277 670v-505h301v-165h-488v670h187zM282 -22q43 0 76.5 -24t33.5 -73q0 -53 -31.5 -79.5t-71.5 -26.5q-16 0 -29.5 5.5t-23.5 12.5v84q22 -15 47 -15q11 0 18.5 4.5t7.5 13.5t-8 14t-19 5v79z" />
    <glyph glyph-name="uni013C" unicode="&#x13c;" horiz-adv-x="312" 
d="M242 720v-720h-172v720h172zM119 -22q43 0 76.5 -24t33.5 -73q0 -53 -31.5 -79.5t-71.5 -26.5q-16 0 -29.5 5.5t-23.5 12.5v84q22 -15 47 -15q11 0 18.5 4.5t7.5 13.5t-8 14t-19 5v79z" />
    <glyph glyph-name="Lcaron" unicode="&#x13d;" horiz-adv-x="598" 
d="M335 718h142l-30 -188h-122zM277 670v-505h301v-165h-488v670h187z" />
    <glyph glyph-name="lcaron" unicode="&#x13e;" horiz-adv-x="422" 
d="M242 720v-720h-172v720h172zM275 718h142l-30 -188h-122z" />
    <glyph glyph-name="Ldot" unicode="&#x13f;" 
d="M277 670v-505h301v-165h-488v670h187zM429 501q37 0 63.5 -26t26.5 -64q0 -37 -26.5 -63.5t-63.5 -26.5t-63.5 26.5t-26.5 63.5q0 38 26.5 64t63.5 26z" />
    <glyph glyph-name="ldot" unicode="&#x140;" horiz-adv-x="455" 
d="M242 720v-720h-172v720h172zM345 525q37 0 63.5 -26t26.5 -64q0 -37 -26.5 -63.5t-63.5 -26.5t-63.5 26.5t-26.5 63.5q0 38 26.5 64t63.5 26z" />
    <glyph glyph-name="Lslash" unicode="&#x141;" horiz-adv-x="598" 
d="M361 547v-156l-84 -52v-174h301v-165h-488v223l-80 -50v156l80 50v291h187v-175z" />
    <glyph glyph-name="lslash" unicode="&#x142;" horiz-adv-x="341" 
d="M331 537v-156l-74 -48v-333h-172v222l-75 -49v156l75 49v342h172v-231z" />
    <glyph glyph-name="Nacute" unicode="&#x143;" horiz-adv-x="792" 
d="M702 670v-680h-66l-359 339v-329h-187v680h66l359 -345v335h187zM566 870l-132 -150h-122l100 150h154z" />
    <glyph glyph-name="nacute" unicode="&#x144;" horiz-adv-x="628" 
d="M242 510v-66q24 33 58.5 57t85.5 24q78 0 127.5 -53t49.5 -157v-315h-172l-1 288q0 38 -21 53.5t-47 15.5q-28 0 -47 -14.5t-33 -34.5v-308h-172v510h172zM503 713l-132 -150h-122l100 150h154z" />
    <glyph glyph-name="uni0145" unicode="&#x145;" horiz-adv-x="792" 
d="M702 670v-680h-66l-359 339v-329h-187v680h66l359 -345v335h187zM359 -22q43 0 76.5 -24t33.5 -73q0 -53 -31.5 -79.5t-71.5 -26.5q-16 0 -29.5 5.5t-23.5 12.5v84q22 -15 47 -15q11 0 18.5 4.5t7.5 13.5t-8 14t-19 5v79z" />
    <glyph glyph-name="uni0146" unicode="&#x146;" horiz-adv-x="628" 
d="M242 510v-66q24 33 58.5 57t85.5 24q78 0 127.5 -53t49.5 -157v-315h-172l-1 288q0 38 -21 53.5t-47 15.5q-28 0 -47 -14.5t-33 -34.5v-308h-172v510h172zM286 -22q43 0 76.5 -24t33.5 -73q0 -53 -31.5 -79.5t-71.5 -26.5q-16 0 -29.5 5.5t-23.5 12.5v84q22 -15 47 -15
q11 0 18.5 4.5t7.5 13.5t-8 14t-19 5v79z" />
    <glyph glyph-name="Ncaron" unicode="&#x147;" horiz-adv-x="792" 
d="M702 670v-680h-66l-359 339v-329h-187v680h66l359 -345v335h187zM224 870h132l40 -59l40 59h132l-120 -150h-104z" />
    <glyph glyph-name="ncaron" unicode="&#x148;" horiz-adv-x="628" 
d="M242 510v-66q24 33 58.5 57t85.5 24q78 0 127.5 -53t49.5 -157v-315h-172l-1 288q0 38 -21 53.5t-47 15.5q-28 0 -47 -14.5t-33 -34.5v-308h-172v510h172zM161 713h132l40 -59l40 59h132l-120 -150h-104z" />
    <glyph glyph-name="Eng" unicode="&#x14a;" horiz-adv-x="782" 
d="M702 672v-625q0 -83 -34.5 -145t-95.5 -101t-142 -56l-62 162q147 32 147 147v50l-238 225v-329h-187v680h66l359 -342v334h187z" />
    <glyph glyph-name="eng" unicode="&#x14b;" horiz-adv-x="633" 
d="M242 510v-66q24 33 58.5 57t85.5 24q78 0 127.5 -53t49.5 -157v-315h-1v-41q0 -67 -47.5 -125.5t-141.5 -88.5l-75 147q39 17 65.5 46t26.5 73v173v0v104q0 38 -21 53.5t-47 15.5q-28 0 -47 -14.5t-33 -34.5v-308h-172v510h172z" />
    <glyph glyph-name="Omacron" unicode="&#x14c;" horiz-adv-x="776" 
d="M388 685q68 0 130.5 -23.5t111.5 -68.5t77.5 -110t28.5 -148t-28.5 -148t-77.5 -110t-111.5 -68.5t-130.5 -23.5t-130.5 23.5t-111.5 68.5t-77.5 110t-28.5 148t28.5 148t77.5 110t111.5 68.5t130.5 23.5zM388 510q-45 0 -80 -23t-55.5 -62.5t-20.5 -89.5t20.5 -89.5
t55.5 -62.5t80 -23t80.5 23t55.5 62.5t20 89.5t-20 89.5t-55.5 62.5t-80.5 23zM573 870v-110h-370v110h370z" />
    <glyph glyph-name="omacron" unicode="&#x14d;" horiz-adv-x="630" 
d="M315 525q53 0 103 -20t90 -56t63.5 -85.5t23.5 -108.5t-23.5 -108.5t-63.5 -85.5t-90 -56t-103 -20t-103 20t-90 56t-63.5 85.5t-23.5 108.5t23.5 108.5t63.5 85.5t90 56t103 20zM315 360q-18 0 -40.5 -8t-38.5 -30.5t-16 -66.5q0 -43 16 -66t38.5 -31t40.5 -8q19 0 41 8
t38 31t16 66q0 44 -16 66.5t-38 30.5t-41 8zM500 710v-110h-370v110h370z" />
    <glyph glyph-name="Ohungarumlaut" unicode="&#x150;" horiz-adv-x="776" 
d="M388 685q68 0 130.5 -23.5t111.5 -68.5t77.5 -110t28.5 -148t-28.5 -148t-77.5 -110t-111.5 -68.5t-130.5 -23.5t-130.5 23.5t-111.5 68.5t-77.5 110t-28.5 148t28.5 148t77.5 110t111.5 68.5t130.5 23.5zM388 510q-45 0 -80 -23t-55.5 -62.5t-20.5 -89.5t20.5 -89.5
t55.5 -62.5t80 -23t80.5 23t55.5 62.5t20 89.5t-20 89.5t-55.5 62.5t-80.5 23zM657 870l-132 -150h-122l100 150h154zM453 870l-132 -150h-122l100 150h154z" />
    <glyph glyph-name="ohungarumlaut" unicode="&#x151;" horiz-adv-x="630" 
d="M315 525q53 0 103 -20t90 -56t63.5 -85.5t23.5 -108.5t-23.5 -108.5t-63.5 -85.5t-90 -56t-103 -20t-103 20t-90 56t-63.5 85.5t-23.5 108.5t23.5 108.5t63.5 85.5t90 56t103 20zM315 360q-18 0 -40.5 -8t-38.5 -30.5t-16 -66.5q0 -43 16 -66t38.5 -31t40.5 -8q19 0 41 8
t38 31t16 66q0 44 -16 66.5t-38 30.5t-41 8zM584 710l-132 -150h-122l100 150h154zM380 710l-132 -150h-122l100 150h154z" />
    <glyph glyph-name="OE" unicode="&#x152;" horiz-adv-x="1037" 
d="M922 409v-140h-266v-109h301v-160h-564q-72 0 -136 25t-112.5 70.5t-76.5 106.5t-28 133t28 133t76.5 106.5t112.5 70.5t136 25h564v-155h-301v-106h266zM393 135h76v390h-76q-55 0 -98 -22.5t-68 -65t-25 -102.5t25 -105t68 -70t98 -25z" />
    <glyph glyph-name="oe" unicode="&#x153;" horiz-adv-x="972" 
d="M315 525q53 0 103 -20t90 -56t63.5 -85.5t23.5 -108.5t-23.5 -108.5t-63.5 -85.5t-90 -56t-103 -20t-103 20t-90 56t-63.5 85.5t-23.5 108.5t23.5 108.5t63.5 85.5t90 56t103 20zM315 360q-18 0 -40.5 -8t-38.5 -30.5t-16 -66.5q0 -43 16 -66t38.5 -31t40.5 -8q19 0 41 8
t38 31t16 66q0 44 -16 66.5t-38 30.5t-41 8zM700 525q72 0 128 -32t87.5 -89.5t31.5 -136.5v-59h-347q11 -37 44 -55t76 -18q58 0 100.5 16.5t63.5 28.5v-147q-26 -16 -71.5 -32t-102.5 -16q-54 0 -104.5 18t-90.5 52t-63 82.5t-23 109.5q0 76 35.5 139t97 101t138.5 38z
M695 383q-33 0 -57 -17.5t-35 -53.5h181q0 36 -27.5 53.5t-61.5 17.5z" />
    <glyph glyph-name="Racute" unicode="&#x154;" horiz-adv-x="699" 
d="M377 670q51 0 99.5 -14t87.5 -43t62.5 -73t23.5 -103q0 -75 -42.5 -124t-108.5 -67l185 -246h-228l-179 266v-266h-187v670h287zM277 495v-125q17 -6 36.5 -10t41.5 -4q44 0 73.5 17.5t29.5 53.5q0 41 -29.5 54.5t-73.5 13.5h-78zM489 870l-132 -150h-122l100 150h154z
" />
    <glyph glyph-name="racute" unicode="&#x155;" horiz-adv-x="438" 
d="M418 321q-15 8 -31.5 12.5t-38.5 4.5q-35 0 -62 -21t-44 -55v-262h-172v510h172v-91q24 41 53.5 71t77.5 30q26 0 45 -9v-190zM416 710l-132 -150h-122l100 150h154z" />
    <glyph glyph-name="uni0156" unicode="&#x156;" horiz-adv-x="699" 
d="M377 670q51 0 99.5 -14t87.5 -43t62.5 -73t23.5 -103q0 -75 -42.5 -124t-108.5 -67l185 -246h-228l-179 266v-266h-187v670h287zM277 495v-125q17 -6 36.5 -10t41.5 -4q44 0 73.5 17.5t29.5 53.5q0 41 -29.5 54.5t-73.5 13.5h-78zM322 -22q43 0 76.5 -24t33.5 -73
q0 -53 -31.5 -79.5t-71.5 -26.5q-16 0 -29.5 5.5t-23.5 12.5v84q22 -15 47 -15q11 0 18.5 4.5t7.5 13.5t-8 14t-19 5v79z" />
    <glyph glyph-name="uni0157" unicode="&#x157;" horiz-adv-x="438" 
d="M418 321q-15 8 -31.5 12.5t-38.5 4.5q-35 0 -62 -21t-44 -55v-262h-172v510h172v-91q24 41 53.5 71t77.5 30q26 0 45 -9v-190zM189 -22q43 0 76.5 -24t33.5 -73q0 -53 -31.5 -79.5t-71.5 -26.5q-16 0 -29.5 5.5t-23.5 12.5v84q22 -15 47 -15q11 0 18.5 4.5t7.5 13.5
t-8 14t-19 5v79z" />
    <glyph glyph-name="Rcaron" unicode="&#x158;" horiz-adv-x="699" 
d="M377 670q51 0 99.5 -14t87.5 -43t62.5 -73t23.5 -103q0 -75 -42.5 -124t-108.5 -67l185 -246h-228l-179 266v-266h-187v670h287zM277 495v-125q17 -6 36.5 -10t41.5 -4q44 0 73.5 17.5t29.5 53.5q0 41 -29.5 54.5t-73.5 13.5h-78zM147 870h132l40 -59l40 59h132
l-120 -150h-104z" />
    <glyph glyph-name="rcaron" unicode="&#x159;" horiz-adv-x="438" 
d="M418 321q-15 8 -31.5 12.5t-38.5 4.5q-35 0 -62 -21t-44 -55v-262h-172v510h172v-91q24 41 53.5 71t77.5 30q26 0 45 -9v-190zM74 710h132l40 -59l40 59h132l-120 -150h-104z" />
    <glyph glyph-name="Sacute" unicode="&#x15a;" horiz-adv-x="573" 
d="M293 685q59 0 116.5 -14.5t92.5 -38.5v-181q-43 25 -85 43.5t-99 18.5q-33 0 -57 -10t-24 -33q0 -25 29 -37.5t71 -28.5l72 -27q73 -28 103.5 -76t30.5 -96q0 -64 -37 -113.5t-100 -78t-141 -28.5q-60 0 -119 21t-103 52v181q48 -36 103.5 -59t111.5 -23q35 0 56.5 8.5
t21.5 29.5q0 15 -16 26t-43 19l-95 30q-56 18 -87 49t-43 69.5t-12 78.5q0 71 36 119.5t94 73.5t123 25zM464 870l-132 -150h-122l100 150h154z" />
    <glyph glyph-name="sacute" unicode="&#x15b;" horiz-adv-x="456" 
d="M248 525q50 0 92.5 -14.5t68.5 -39.5v-135q-26 16 -59 30.5t-71 14.5q-24 0 -42.5 -9.5t-18.5 -29.5q0 -14 11 -21t43 -15l31 -8q133 -34 133 -143q0 -50 -29.5 -88.5t-77 -60t-102.5 -21.5q-57 0 -106 16.5t-84 40.5v134q36 -22 81.5 -37t81.5 -15q29 0 42.5 7t13.5 25
q0 14 -16 21.5t-46 17.5l-51 16q-56 17 -82 53.5t-26 89.5t28 91t76.5 59t108.5 21zM398 710l-132 -150h-122l100 150h154z" />
    <glyph glyph-name="Scedilla" unicode="&#x15e;" horiz-adv-x="573" 
d="M293 685q59 0 116.5 -14.5t92.5 -38.5v-181q-43 25 -85 43.5t-99 18.5q-33 0 -57 -10t-24 -33q0 -25 29 -37.5t71 -28.5l72 -27q73 -28 103.5 -76t30.5 -96q0 -64 -37 -113.5t-100 -78t-141 -28.5q-60 0 -119 21t-103 52v181q48 -36 103.5 -59t111.5 -23q35 0 56.5 8.5
t21.5 29.5q0 15 -16 26t-43 19l-95 30q-56 18 -87 49t-43 69.5t-12 78.5q0 71 36 119.5t94 73.5t123 25zM300 2l-3 -48q41 2 65.5 -23t24.5 -62q0 -51 -33 -80t-85 -29q-15 0 -39.5 6t-40.5 19l7 74q16 -8 32 -17t38 -9q10 0 21 6.5t11 19.5q0 12 -9.5 18t-20.5 6
q-13 0 -30 -9l-24 12l12 116h74z" />
    <glyph glyph-name="scedilla" unicode="&#x15f;" horiz-adv-x="456" 
d="M248 525q50 0 92.5 -14.5t68.5 -39.5v-135q-26 16 -59 30.5t-71 14.5q-24 0 -42.5 -9.5t-18.5 -29.5q0 -14 11 -21t43 -15l31 -8q133 -34 133 -143q0 -50 -29.5 -88.5t-77 -60t-102.5 -21.5q-57 0 -106 16.5t-84 40.5v134q36 -22 81.5 -37t81.5 -15q29 0 42.5 7t13.5 25
q0 14 -16 21.5t-46 17.5l-51 16q-56 17 -82 53.5t-26 89.5t28 91t76.5 59t108.5 21zM241 2l-3 -48q41 2 65.5 -23t24.5 -62q0 -51 -33 -80t-85 -29q-15 0 -39.5 6t-40.5 19l7 74q16 -8 32 -17t38 -9q10 0 21 6.5t11 19.5q0 12 -9.5 18t-20.5 6q-13 0 -30 -9l-24 12l12 116
h74z" />
    <glyph glyph-name="Scaron" unicode="&#x160;" horiz-adv-x="573" 
d="M293 685q59 0 116.5 -14.5t92.5 -38.5v-181q-43 25 -85 43.5t-99 18.5q-33 0 -57 -10t-24 -33q0 -25 29 -37.5t71 -28.5l72 -27q73 -28 103.5 -76t30.5 -96q0 -64 -37 -113.5t-100 -78t-141 -28.5q-60 0 -119 21t-103 52v181q48 -36 103.5 -59t111.5 -23q35 0 56.5 8.5
t21.5 29.5q0 15 -16 26t-43 19l-95 30q-56 18 -87 49t-43 69.5t-12 78.5q0 71 36 119.5t94 73.5t123 25zM122 870h132l40 -59l40 59h132l-120 -150h-104z" />
    <glyph glyph-name="scaron" unicode="&#x161;" horiz-adv-x="456" 
d="M248 525q50 0 92.5 -14.5t68.5 -39.5v-135q-26 16 -59 30.5t-71 14.5q-24 0 -42.5 -9.5t-18.5 -29.5q0 -14 11 -21t43 -15l31 -8q133 -34 133 -143q0 -50 -29.5 -88.5t-77 -60t-102.5 -21.5q-57 0 -106 16.5t-84 40.5v134q36 -22 81.5 -37t81.5 -15q29 0 42.5 7t13.5 25
q0 14 -16 21.5t-46 17.5l-51 16q-56 17 -82 53.5t-26 89.5t28 91t76.5 59t108.5 21zM56 710h132l40 -59l40 59h132l-120 -150h-104z" />
    <glyph glyph-name="uni0162" unicode="&#x162;" horiz-adv-x="631" 
d="M606 670v-165h-197v-502h-187v502h-197v165h581zM347 2l-3 -48q41 2 65.5 -23t24.5 -62q0 -51 -33 -80t-85 -29q-15 0 -39.5 6t-40.5 19l7 74q16 -8 32 -17t38 -9q10 0 21 6.5t11 19.5q0 12 -9.5 18t-20.5 6q-13 0 -30 -9l-24 12l12 116h74z" />
    <glyph glyph-name="uni0163" unicode="&#x163;" horiz-adv-x="483" 
d="M298 660v-150h134v-135h-134v-143q0 -37 15.5 -58.5t43.5 -21.5q44 0 81 22v-134q-16 -22 -50.5 -38.5t-84.5 -16.5q-48 0 -88 22t-64.5 63t-24.5 99v206h-86v105q49 13 96.5 56.5t69.5 123.5h92zM323 2l-3 -48q41 2 65.5 -23t24.5 -62q0 -51 -33 -80t-85 -29
q-15 0 -39.5 6t-40.5 19l7 74q16 -8 32 -17t38 -9q10 0 21 6.5t11 19.5q0 12 -9.5 18t-20.5 6q-13 0 -30 -9l-24 12l12 116h74z" />
    <glyph glyph-name="Tcaron" unicode="&#x164;" horiz-adv-x="631" 
d="M606 670v-165h-197v-502h-187v502h-197v165h581zM144 870h132l40 -59l40 59h132l-120 -150h-104z" />
    <glyph glyph-name="tcaron" unicode="&#x165;" horiz-adv-x="542" 
d="M355 718h142l-30 -158h-122zM298 660v-150h134v-135h-134v-143q0 -37 15.5 -58.5t43.5 -21.5q44 0 81 22v-134q-16 -22 -50.5 -38.5t-84.5 -16.5q-48 0 -88 22t-64.5 63t-24.5 99v206h-86v105q49 13 96.5 56.5t69.5 123.5h92z" />
    <glyph glyph-name="Tbar" unicode="&#x166;" horiz-adv-x="631" 
d="M606 670v-165h-197v-502h-187v502h-197v165h581zM501 870v-110h-370v110h370z" />
    <glyph glyph-name="tbar" unicode="&#x167;" horiz-adv-x="448" 
d="M406 319v-90h-108q1 -36 16.5 -56.5t42.5 -20.5q44 0 81 22v-134q-16 -22 -50.5 -38.5t-84.5 -16.5q-48 0 -88 22t-64.5 63t-24.5 99v60h-102v90h102v56h-86v105q49 13 96.5 56.5t69.5 123.5h92v-150h134v-135h-134v-56h108z" />
    <glyph glyph-name="Umacron" unicode="&#x16a;" horiz-adv-x="766" 
d="M686 672v-407q0 -87 -41 -150t-109.5 -96.5t-152.5 -33.5q-83 0 -152 33.5t-110 96.5t-41 150v407h187v-394q0 -52 28 -85.5t88 -32.5t88 33.5t28 84.5v394h187zM568 870v-110h-370v110h370z" />
    <glyph glyph-name="umacron" unicode="&#x16b;" horiz-adv-x="618" 
d="M553 510v-306q0 -69 -31.5 -118t-86.5 -75t-126 -26t-126 26t-86.5 75t-31.5 118v306h172l1 -260q0 -52 16.5 -76t54.5 -24t54.5 24t16.5 76l1 260h172zM502 710v-110h-370v110h370z" />
    <glyph glyph-name="Uring" unicode="&#x16e;" horiz-adv-x="766" 
d="M686 672v-407q0 -87 -41 -150t-109.5 -96.5t-152.5 -33.5q-83 0 -152 33.5t-110 96.5t-41 150v407h187v-394q0 -52 28 -85.5t88 -32.5t88 33.5t28 84.5v394h187zM383 893q40 0 68 -26.5t28 -64.5t-28 -64.5t-68 -26.5t-68.5 26.5t-28.5 64.5t28.5 64.5t68.5 26.5z
M383 838q-16 0 -27.5 -10.5t-11.5 -25.5q0 -16 11.5 -26t27.5 -10q15 0 26.5 10t11.5 26q0 15 -11.5 25.5t-26.5 10.5z" />
    <glyph glyph-name="uring" unicode="&#x16f;" horiz-adv-x="618" 
d="M553 510v-306q0 -69 -31.5 -118t-86.5 -75t-126 -26t-126 26t-86.5 75t-31.5 118v306h172l1 -260q0 -52 16.5 -76t54.5 -24t54.5 24t16.5 76l1 260h172zM317 733q40 0 68 -26.5t28 -64.5t-28 -64.5t-68 -26.5t-68.5 26.5t-28.5 64.5t28.5 64.5t68.5 26.5zM317 678
q-16 0 -27.5 -10.5t-11.5 -25.5q0 -16 11.5 -26t27.5 -10q15 0 26.5 10t11.5 26q0 15 -11.5 25.5t-26.5 10.5z" />
    <glyph glyph-name="Uhungarumlaut" unicode="&#x170;" horiz-adv-x="766" 
d="M686 672v-407q0 -87 -41 -150t-109.5 -96.5t-152.5 -33.5q-83 0 -152 33.5t-110 96.5t-41 150v407h187v-394q0 -52 28 -85.5t88 -32.5t88 33.5t28 84.5v394h187zM652 870l-132 -150h-122l100 150h154zM448 870l-132 -150h-122l100 150h154z" />
    <glyph glyph-name="uhungarumlaut" unicode="&#x171;" horiz-adv-x="618" 
d="M553 510v-306q0 -69 -31.5 -118t-86.5 -75t-126 -26t-126 26t-86.5 75t-31.5 118v306h172l1 -260q0 -52 16.5 -76t54.5 -24t54.5 24t16.5 76l1 260h172zM586 710l-132 -150h-122l100 150h154zM382 710l-132 -150h-122l100 150h154z" />
    <glyph glyph-name="Uogonek" unicode="&#x172;" horiz-adv-x="766" 
d="M686 672v-407q0 -87 -41 -150t-109.5 -96.5t-152.5 -33.5q-83 0 -152 33.5t-110 96.5t-41 150v407h187v-394q0 -52 28 -85.5t88 -32.5t88 33.5t28 84.5v394h187zM353 1h140q-44 -10 -75 -33.5t-31 -40.5q0 -16 10 -25.5t26 -9.5q17 0 30 5.5t24 12.5v-113
q-10 -5 -41 -13.5t-73 -8.5q-30 0 -59 11t-48.5 33t-19.5 55q0 35 17.5 61t44.5 42.5t55 23.5z" />
    <glyph glyph-name="uogonek" unicode="&#x173;" horiz-adv-x="618" 
d="M553 510v-306q0 -69 -31.5 -118t-86.5 -75t-126 -26t-126 26t-86.5 75t-31.5 118v306h172l1 -260q0 -52 16.5 -76t54.5 -24t54.5 24t16.5 76l1 260h172zM271 1h140q-44 -10 -75 -33.5t-31 -40.5q0 -16 10 -25.5t26 -9.5q17 0 30 5.5t24 12.5v-113q-10 -5 -41 -13.5
t-73 -8.5q-30 0 -59 11t-48.5 33t-19.5 55q0 35 17.5 61t44.5 42.5t55 23.5z" />
    <glyph glyph-name="Wcircumflex" unicode="&#x174;" horiz-adv-x="974" 
d="M964 670l-218 -670h-141l-117 355l-117 -355h-141l-220 670h218l91 -348l104 348h128l106 -348l89 348h218zM539 870l120 -150h-132l-40 59l-40 -59h-132l120 150h104z" />
    <glyph glyph-name="wcircumflex" unicode="&#x175;" horiz-adv-x="824" 
d="M819 510l-175 -510h-133l-99 301l-99 -301h-135l-173 510h178l75 -248l86 248h136l86 -248l75 248h178zM455 710l120 -150h-132l-40 59l-40 -59h-132l120 150h104z" />
    <glyph glyph-name="Ycircumflex" unicode="&#x176;" horiz-adv-x="731" 
d="M721 670l-262 -439v-231h-187v231l-262 439h218l138 -248l137 248h218zM418 870l120 -150h-132l-40 59l-40 -59h-132l120 150h104z" />
    <glyph glyph-name="ycircumflex" unicode="&#x177;" horiz-adv-x="622" 
d="M203 510l113 -271l109 271h192l-366 -750h-192l161 284l-215 466h198zM358 710l120 -150h-132l-40 59l-40 -59h-132l120 150h104z" />
    <glyph glyph-name="Ydieresis" unicode="&#x178;" horiz-adv-x="731" 
d="M721 670l-262 -439v-231h-187v231l-262 439h218l138 -248l137 248h218zM471 885q31 0 53.5 -22t22.5 -54q0 -31 -22.5 -53.5t-53.5 -22.5t-53.5 22.5t-22.5 53.5q0 32 22.5 54t53.5 22zM261 885q31 0 53.5 -22t22.5 -54q0 -31 -22.5 -53.5t-53.5 -22.5t-53.5 22.5
t-22.5 53.5q0 32 22.5 54t53.5 22z" />
    <glyph glyph-name="Zacute" unicode="&#x179;" horiz-adv-x="709" 
d="M649 670v-36l-285 -469h285v-165h-589v36l284 469h-262v165h567zM531 870l-132 -150h-122l100 150h154z" />
    <glyph glyph-name="zacute" unicode="&#x17a;" horiz-adv-x="564" 
d="M509 510v-36l-221 -334h231v-140h-469v36l210 334h-200v140h449zM455 710l-132 -150h-122l100 150h154z" />
    <glyph glyph-name="Zdotaccent" unicode="&#x17b;" horiz-adv-x="709" 
d="M649 670v-36l-285 -469h285v-165h-589v36l284 469h-262v165h567zM361 870q31 0 53.5 -22t22.5 -54q0 -31 -22.5 -53.5t-53.5 -22.5t-53.5 22.5t-22.5 53.5q0 32 22.5 54t53.5 22z" />
    <glyph glyph-name="zdotaccent" unicode="&#x17c;" horiz-adv-x="564" 
d="M509 510v-36l-221 -334h231v-140h-469v36l210 334h-200v140h449zM285 710q31 0 53.5 -22t22.5 -54q0 -31 -22.5 -53.5t-53.5 -22.5t-53.5 22.5t-22.5 53.5q0 32 22.5 54t53.5 22z" />
    <glyph glyph-name="Zcaron" unicode="&#x17d;" horiz-adv-x="709" 
d="M649 670v-36l-285 -469h285v-165h-589v36l284 469h-262v165h567zM189 870h132l40 -59l40 59h132l-120 -150h-104z" />
    <glyph glyph-name="zcaron" unicode="&#x17e;" horiz-adv-x="564" 
d="M509 510v-36l-221 -334h231v-140h-469v36l210 334h-200v140h449zM113 710h132l40 -59l40 59h132l-120 -150h-104z" />
    <glyph glyph-name="circumflex" unicode="&#x2c6;" horiz-adv-x="504" 
d="M304 710l120 -150h-132l-40 59l-40 -59h-132l120 150h104z" />
    <glyph glyph-name="caron" unicode="&#x2c7;" horiz-adv-x="464" 
d="M60 710h132l40 -59l40 59h132l-120 -150h-104z" />
    <glyph glyph-name="breve" unicode="&#x2d8;" horiz-adv-x="484" 
d="M404 710q-2 -69 -48 -109.5t-114 -40.5q-67 0 -113.5 40.5t-48.5 109.5h102q9 -42 60 -42q25 0 40.5 14.5t19.5 27.5h102z" />
    <glyph glyph-name="dotaccent" unicode="&#x2d9;" horiz-adv-x="312" 
d="M156 710q31 0 53.5 -22t22.5 -54q0 -31 -22.5 -53.5t-53.5 -22.5t-53.5 22.5t-22.5 53.5q0 32 22.5 54t53.5 22z" />
    <glyph glyph-name="ring" unicode="&#x2da;" horiz-adv-x="341" 
d="M171 733q40 0 68 -26.5t28 -64.5t-28 -64.5t-68 -26.5t-68.5 26.5t-28.5 64.5t28.5 64.5t68.5 26.5zM171 678q-16 0 -27.5 -10.5t-11.5 -25.5q0 -16 11.5 -26t27.5 -10q15 0 26.5 10t11.5 26q0 15 -11.5 25.5t-26.5 10.5z" />
    <glyph glyph-name="ogonek" unicode="&#x2db;" 
d="M250 1h140q-44 -10 -75 -33.5t-31 -40.5q0 -16 10 -25.5t26 -9.5q17 0 30 5.5t24 12.5v-113q-10 -5 -41 -13.5t-73 -8.5q-30 0 -59 11t-48.5 33t-19.5 55q0 35 17.5 61t44.5 42.5t55 23.5z" />
    <glyph glyph-name="tilde" unicode="&#x2dc;" horiz-adv-x="450" 
d="M416 685q0 -70 -37.5 -104.5t-90.5 -34.5q-33 0 -53.5 10.5t-35 20.5t-28.5 10q-33 0 -33 -37h-94q0 70 38 104.5t90 34.5q33 0 53.5 -10t35 -20.5t28.5 -10.5q33 0 33 37h94z" />
    <glyph glyph-name="hungarumlaut" unicode="&#x2dd;" horiz-adv-x="548" 
d="M528 710l-132 -150h-122l100 150h154zM324 710l-132 -150h-122l100 150h154z" />
    <glyph glyph-name="uni0326" unicode="&#x326;" horiz-adv-x="0" 
d="M115 -22q43 0 76.5 -24t33.5 -73q0 -53 -31.5 -79.5t-71.5 -26.5q-16 0 -29.5 5.5t-23.5 12.5v84q22 -15 47 -15q11 0 18.5 4.5t7.5 13.5t-8 14t-19 5v79z" />
    <glyph glyph-name="Wgrave" unicode="&#x1e80;" horiz-adv-x="974" 
d="M964 670l-218 -670h-141l-117 355l-117 -355h-141l-220 670h218l91 -348l104 348h128l106 -348l89 348h218zM451 870l100 -150h-122l-132 150h154z" />
    <glyph glyph-name="wgrave" unicode="&#x1e81;" horiz-adv-x="824" 
d="M819 510l-175 -510h-133l-99 301l-99 -301h-135l-173 510h178l75 -248l86 248h136l86 -248l75 248h178zM367 710l100 -150h-122l-132 150h154z" />
    <glyph glyph-name="Wacute" unicode="&#x1e82;" horiz-adv-x="974" 
d="M964 670l-218 -670h-141l-117 355l-117 -355h-141l-220 670h218l91 -348l104 348h128l106 -348l89 348h218zM657 870l-132 -150h-122l100 150h154z" />
    <glyph glyph-name="wacute" unicode="&#x1e83;" horiz-adv-x="824" 
d="M819 510l-175 -510h-133l-99 301l-99 -301h-135l-173 510h178l75 -248l86 248h136l86 -248l75 248h178zM573 710l-132 -150h-122l100 150h154z" />
    <glyph glyph-name="Wdieresis" unicode="&#x1e84;" horiz-adv-x="974" 
d="M964 670l-218 -670h-141l-117 355l-117 -355h-141l-220 670h218l91 -348l104 348h128l106 -348l89 348h218zM592 885q31 0 53.5 -22t22.5 -54q0 -31 -22.5 -53.5t-53.5 -22.5t-53.5 22.5t-22.5 53.5q0 32 22.5 54t53.5 22zM382 885q31 0 53.5 -22t22.5 -54
q0 -31 -22.5 -53.5t-53.5 -22.5t-53.5 22.5t-22.5 53.5q0 32 22.5 54t53.5 22z" />
    <glyph glyph-name="wdieresis" unicode="&#x1e85;" horiz-adv-x="824" 
d="M819 510l-175 -510h-133l-99 301l-99 -301h-135l-173 510h178l75 -248l86 248h136l86 -248l75 248h178zM508 725q31 0 53.5 -22t22.5 -54q0 -31 -22.5 -53.5t-53.5 -22.5t-53.5 22.5t-22.5 53.5q0 32 22.5 54t53.5 22zM298 725q31 0 53.5 -22t22.5 -54q0 -31 -22.5 -53.5
t-53.5 -22.5t-53.5 22.5t-22.5 53.5q0 32 22.5 54t53.5 22z" />
    <glyph glyph-name="Ygrave" unicode="&#x1ef2;" horiz-adv-x="731" 
d="M721 670l-262 -439v-231h-187v231l-262 439h218l138 -248l137 248h218zM330 870l100 -150h-122l-132 150h154z" />
    <glyph glyph-name="ygrave" unicode="&#x1ef3;" horiz-adv-x="622" 
d="M203 510l113 -271l109 271h192l-366 -750h-192l161 284l-215 466h198zM270 710l100 -150h-122l-132 150h154z" />
    <glyph glyph-name="endash" unicode="&#x2013;" 
d="M550 338v-150h-490v150h490z" />
    <glyph glyph-name="emdash" unicode="&#x2014;" horiz-adv-x="888" 
d="M828 338v-150h-768v150h768z" />
    <glyph glyph-name="quoteleft" unicode="&#x2018;" horiz-adv-x="292" 
d="M150 688l122 -16l-90 -249l-142 28z" />
    <glyph glyph-name="quoteright" unicode="&#x2019;" horiz-adv-x="292" 
d="M120 688l142 -28l-110 -237l-122 16z" />
    <glyph glyph-name="quotesinglbase" unicode="&#x201a;" horiz-adv-x="379" 
d="M150 112l142 -28l-110 -237l-122 16z" />
    <glyph glyph-name="quotedblleft" unicode="&#x201c;" horiz-adv-x="512" 
d="M150 693l122 -16l-90 -249l-142 28zM370 693l122 -16l-90 -249l-142 28z" />
    <glyph glyph-name="quotedblright" unicode="&#x201d;" horiz-adv-x="472" 
d="M352 425l-122 16l90 249l142 -28zM132 425l-122 16l90 249l142 -28z" />
    <glyph glyph-name="quotedblbase" unicode="&#x201e;" horiz-adv-x="472" 
d="M352 -141l-122 16l90 249l142 -28zM132 -141l-122 16l90 249l142 -28z" />
    <glyph glyph-name="dagger" unicode="&#x2020;" horiz-adv-x="463" 
d="M423 520v-140h-113v-480h-157v480h-113v140h113v150h157v-150h113z" />
    <glyph glyph-name="daggerdbl" unicode="&#x2021;" 
d="M423 245v-140h-113v-205h-157v205h-113v140h113v135h-113v140h113v150h157v-150h113v-140h-113v-135h113z" />
    <glyph glyph-name="bullet" unicode="&#x2022;" horiz-adv-x="479" 
d="M239 463q44 0 80 -21.5t58 -58t22 -80.5q0 -43 -22 -79t-58 -58t-80 -22t-80 22t-57.5 58t-21.5 79q0 44 21.5 80.5t57.5 58t80 21.5z" />
    <glyph glyph-name="ellipsis" unicode="&#x2026;" horiz-adv-x="800" 
d="M400 161q37 0 63.5 -26t26.5 -64q0 -37 -26.5 -63.5t-63.5 -26.5t-63.5 26.5t-26.5 63.5q0 38 26.5 64t63.5 26zM670 161q37 0 63.5 -26t26.5 -64q0 -37 -26.5 -63.5t-63.5 -26.5t-63.5 26.5t-26.5 63.5q0 38 26.5 64t63.5 26zM130 161q37 0 63.5 -26t26.5 -64
q0 -37 -26.5 -63.5t-63.5 -26.5t-63.5 26.5t-26.5 63.5q0 38 26.5 64t63.5 26z" />
    <glyph glyph-name="guilsinglleft" unicode="&#x2039;" horiz-adv-x="325" 
d="M265 32l-235 195v38l235 203v-153l-80 -67l80 -63v-153z" />
    <glyph glyph-name="guilsinglright" unicode="&#x203a;" horiz-adv-x="325" 
d="M60 468l235 -195v-38l-235 -203v153l80 67l-80 63v153z" />
    <glyph glyph-name="fraction" unicode="&#x2044;" horiz-adv-x="82" 
d="M332 670l-464 -670h-118l461 670h121z" />
    <glyph glyph-name="uni2074" unicode="&#x2074;" horiz-adv-x="283" 
d="M209 670v-165h34v-66h-34v-66h-74v66h-115v57q35 40 65 81t61 93h63zM135 544q-9 -13 -14.5 -20.5t-13.5 -18.5h28v39z" />
    <glyph glyph-name="Euro" unicode="&#x20ac;" horiz-adv-x="627" 
d="M490 315v-90h-147q24 -30 58.5 -47.5t73.5 -17.5q35 0 62 12.5t50 32.5v-177q-26 -19 -66.5 -31t-72.5 -12q-66 0 -131 28t-115 81.5t-73 130.5h-89v90h73v20v15h-73v90h87q22 78 72.5 133t116 83.5t132.5 28.5q22 0 49.5 -5.5t52.5 -15t37 -22.5v-177q-23 20 -50 32.5
t-62 12.5q-40 0 -76 -19t-60 -51h151v-90h-184q-1 -7 -1 -15q0 -10 1 -20h184z" />
    <glyph glyph-name="trademark" unicode="&#x2122;" horiz-adv-x="551" 
d="M250 671v-62h-69v-142h-72v142h-69v62h210zM511 670v-203h-73v70l-32 -36h-18l-36 36v-70h-73v203h47l71 -97l68 97h46z" />
    <glyph glyph-name="minus" unicode="&#x2212;" horiz-adv-x="531" 
d="M451 388v-150h-371v150h371z" />
    <glyph glyph-name="uni2215" unicode="&#x2215;" horiz-adv-x="662" 
d="M622 670l-464 -670h-118l461 670h121z" />
    <glyph glyph-name="approxequal" unicode="&#x2248;" horiz-adv-x="614" 
d="M554 304q0 -82 -43 -133.5t-113 -51.5q-33 0 -57 9.5t-43 21.5t-36 21.5t-36 9.5q-21 0 -32.5 -16.5t-11.5 -39.5h-122q0 83 43 134t113 51q33 0 57 -9.5t43 -21.5t36 -21.5t36 -9.5q22 0 33 17t11 39h122zM554 519q0 -82 -43 -133.5t-113 -51.5q-33 0 -57 9.5t-43 21.5
t-36 21.5t-36 9.5q-21 0 -32.5 -16.5t-11.5 -39.5h-122q0 83 43 134t113 51q33 0 57 -9.5t43 -21.5t36 -21.5t36 -9.5q22 0 33 17t11 39h122z" />
    <glyph glyph-name="notequal" unicode="&#x2260;" horiz-adv-x="551" 
d="M471 278v-150h-220l-39 -86h-118l39 86h-53v150h120l30 65h-150v150h217l26 57h121l-26 -57h53v-150h-122l-29 -65h151z" />
    <glyph glyph-name="lessequal" unicode="&#x2264;" horiz-adv-x="578" 
d="M498 638l-418 -219v-42l418 -228v141l-213 109l213 98v141zM80 130v-130h418v130h-418z" />
    <glyph glyph-name="greaterequal" unicode="&#x2265;" horiz-adv-x="565" 
d="M80 638l418 -219v-42l-418 -228v141l213 109l-213 98v141zM498 130v-130h-418v130h418z" />
    </font>
</defs>
</svg>
